  0
SECTION
  2
HEADER
  9
$ACADVER
  1
AC1014
  9
$ACADMAINTVER
 70
     9
  9
$DWGCODEPAGE
  3
ANSI_1252
  9
$INSBASE
 10
0.0
 20
0.0
 30
0.0
  9
$EXTMIN
 10
5.0
 20
5.0
 30
0.0
  9
$EXTMAX
 10
205.000037
 20
292.0001829999998
 30
0.0
  9
$LIMMIN
 10
0.0
 20
0.0
  9
$LIMMAX
 10
210.0
 20
296.0
  9
$ORTHOMODE
 70
     0
  9
$REGENMODE
 70
     1
  9
$FILLMODE
 70
     1
  9
$QTEXTMODE
 70
     0
  9
$MIRRTEXT
 70
     0
  9
$DRAGMODE
 70
     2
  9
$LTSCALE
 40
1.0
  9
$OSMODE
 70
    39
  9
$ATTMODE
 70
     1
  9
$TEXTSIZE
 40
1.8
  9
$TRACEWID
 40
0.05
  9
$TEXTSTYLE
  7
FINDER
  9
$CLAYER
  8
0
  9
$CELTYPE
  6
CONTINUOUS
  9
$CECOLOR
 62
   256
  9
$CELTSCALE
 40
1.0
  9
$DELOBJ
 70
     1
  9
$DISPSILH
 70
     0
  9
$DIMSCALE
 40
1.0
  9
$DIMASZ
 40
2.5
  9
$DIMEXO
 40
2.0
  9
$DIMDLI
 40
6.5
  9
$DIMRND
 40
0.0
  9
$DIMDLE
 40
0.0
  9
$DIMEXE
 40
1.25
  9
$DIMTP
 40
0.0
  9
$DIMTM
 40
0.0
  9
$DIMTXT
 40
3.5
  9
$DIMCEN
 40
2.5
  9
$DIMTSZ
 40
0.0
  9
$DIMTOL
 70
     0
  9
$DIMLIM
 70
     0
  9
$DIMTIH
 70
     0
  9
$DIMTOH
 70
     0
  9
$DIMSE1
 70
     0
  9
$DIMSE2
 70
     0
  9
$DIMTAD
 70
     1
  9
$DIMZIN
 70
     8
  9
$DIMBLK
  1

  9
$DIMASO
 70
     1
  9
$DIMSHO
 70
     1
  9
$DIMPOST
  1

  9
$DIMAPOST
  1

  9
$DIMALT
 70
     0
  9
$DIMALTD
 70
     3
  9
$DIMALTF
 40
0.03937
  9
$DIMLFAC
 40
1.0
  9
$DIMTOFL
 70
     1
  9
$DIMTVP
 40
0.0
  9
$DIMTIX
 70
     0
  9
$DIMSOXD
 70
     0
  9
$DIMSAH
 70
     0
  9
$DIMBLK1
  1

  9
$DIMBLK2
  1

  9
$DIMSTYLE
  2
FINDER
  9
$DIMCLRD
 70
   256
  9
$DIMCLRE
 70
   256
  9
$DIMCLRT
 70
     2
  9
$DIMTFAC
 40
1.0
  9
$DIMGAP
 40
0.625
  9
$DIMJUST
 70
     0
  9
$DIMSD1
 70
     0
  9
$DIMSD2
 70
     0
  9
$DIMTOLJ
 70
     0
  9
$DIMTZIN
 70
     8
  9
$DIMALTZ
 70
     0
  9
$DIMALTTZ
 70
     0
  9
$DIMFIT
 70
     3
  9
$DIMUPT
 70
     0
  9
$DIMUNIT
 70
     2
  9
$DIMDEC
 70
     2
  9
$DIMTDEC
 70
     2
  9
$DIMALTU
 70
     2
  9
$DIMALTTD
 70
     3
  9
$DIMTXSTY
  7
FINDER
  9
$DIMAUNIT
 70
     0
  9
$LUNITS
 70
     2
  9
$LUPREC
 70
     4
  9
$SKETCHINC
 40
0.1
  9
$FILLETRAD
 40
0.3
  9
$AUNITS
 70
     0
  9
$AUPREC
 70
     3
  9
$MENU
  1
acad
  9
$ELEVATION
 40
0.0
  9
$PELEVATION
 40
0.0
  9
$THICKNESS
 40
0.0
  9
$LIMCHECK
 70
     0
  9
$BLIPMODE
 70
     0
  9
$CHAMFERA
 40
0.0
  9
$CHAMFERB
 40
0.0
  9
$CHAMFERC
 40
0.0
  9
$CHAMFERD
 40
0.0
  9
$SKPOLY
 70
     0
  9
$TDCREATE
 40
2451901.420981018
  9
$TDUPDATE
 40
2454272.749777014
  9
$TDINDWG
 40
1.0657971412
  9
$TDUSRTIMER
 40
1.0657965856
  9
$USRTIMER
 70
     1
  9
$ANGBASE
 50
0.0
  9
$ANGDIR
 70
     0
  9
$PDMODE
 70
     0
  9
$PDSIZE
 40
0.0
  9
$PLINEWID
 40
0.0
  9
$COORDS
 70
     1
  9
$SPLFRAME
 70
     0
  9
$SPLINETYPE
 70
     6
  9
$SPLINESEGS
 70
     8
  9
$ATTDIA
 70
     0
  9
$ATTREQ
 70
     1
  9
$HANDLING
 70
 22529
  9
$HANDSEED
  5
2B3B
  9
$SURFTAB1
 70
     6
  9
$SURFTAB2
 70
     6
  9
$SURFTYPE
 70
     6
  9
$SURFU
 70
     6
  9
$SURFV
 70
     6
  9
$UCSNAME
  2

  9
$UCSORG
 10
0.0
 20
0.0
 30
0.0
  9
$UCSXDIR
 10
1.0
 20
0.0
 30
0.0
  9
$UCSYDIR
 10
0.0
 20
1.0
 30
0.0
  9
$PUCSNAME
  2

  9
$PUCSORG
 10
0.0
 20
0.0
 30
0.0
  9
$PUCSXDIR
 10
1.0
 20
0.0
 30
0.0
  9
$PUCSYDIR
 10
0.0
 20
1.0
 30
0.0
  9
$USERI1
 70
     0
  9
$USERI2
 70
     0
  9
$USERI3
 70
     0
  9
$USERI4
 70
     0
  9
$USERI5
 70
     0
  9
$USERR1
 40
0.0
  9
$USERR2
 40
0.0
  9
$USERR3
 40
0.0
  9
$USERR4
 40
0.0
  9
$USERR5
 40
0.0
  9
$WORLDVIEW
 70
     1
  9
$SHADEDGE
 70
     3
  9
$SHADEDIF
 70
    70
  9
$TILEMODE
 70
     1
  9
$MAXACTVP
 70
    16
  9
$PINSBASE
 10
0.0
 20
0.0
 30
0.0
  9
$PLIMCHECK
 70
     0
  9
$PEXTMIN
 10
1.000000000000000E+20
 20
1.000000000000000E+20
 30
1.000000000000000E+20
  9
$PEXTMAX
 10
-1.000000000000000E+20
 20
-1.000000000000000E+20
 30
-1.000000000000000E+20
  9
$PLIMMIN
 10
0.0
 20
0.0
  9
$PLIMMAX
 10
100.0
 20
100.0
  9
$UNITMODE
 70
     0
  9
$VISRETAIN
 70
     0
  9
$PLINEGEN
 70
     1
  9
$PSLTSCALE
 70
     0
  9
$TREEDEPTH
 70
  3020
  9
$PICKSTYLE
 70
     1
  9
$CMLSTYLE
  2
STANDARD
  9
$CMLJUST
 70
     0
  9
$CMLSCALE
 40
1.0
  9
$PROXYGRAPHICS
 70
     1
  9
$MEASUREMENT
 70
     0
  0
ENDSEC
  0
SECTION
  2
CLASSES
  0
CLASS
  1
LWPOLYLINE
  2
AcDbPolyline
  3
AutoCAD 2000
 90
        0
280
     0
281
     1
  0
CLASS
  1
IMAGE
  2
AcDbRasterImage
  3
ISM
 90
      127
280
     0
281
     1
  0
CLASS
  1
OLE2FRAME
  2
AcDbOle2Frame
  3
AutoCAD 2000
 90
        0
280
     0
281
     1
  0
CLASS
  1
HATCH
  2
AcDbHatch
  3
AutoCAD 2000
 90
        0
280
     0
281
     1
  0
CLASS
  1
DICTIONARYVAR
  2
AcDbDictionaryVar
  3
AutoCAD 2000
 90
        0
280
     0
281
     0
  0
CLASS
  1
RASTERVARIABLES
  2
AcDbRasterVariables
  3
ISM
 90
        0
280
     0
281
     0
  0
CLASS
  1
IMAGEDEF
  2
AcDbRasterImageDef
  3
ISM
 90
        0
280
     0
281
     0
  0
CLASS
  1
IMAGEDEF_REACTOR
  2
AcDbRasterImageDefReactor
  3
ISM
 90
        1
280
     0
281
     0
  0
CLASS
  1
SPATIAL_FILTER
  2
AcDbSpatialFilter
  3
AutoCAD 2000
 90
        0
280
     0
281
     0
  0
CLASS
  1
XRECORD
  2
AcDbXrecord
  3
AutoCAD 2000
 90
        0
280
     0
281
     0
  0
CLASS
  1
SORTENTSTABLE
  2
AcDbSortentsTable
  3
AutoCAD 2000
 90
        0
280
     0
281
     0
  0
CLASS
  1
LAYER_INDEX
  2
AcDbLayerIndex
  3
AutoCAD 2000
 90
        0
280
     0
281
     0
  0
CLASS
  1
SPATIAL_INDEX
  2
AcDbSpatialIndex
  3
AutoCAD 2000
 90
        0
280
     0
281
     0
  0
CLASS
  1
OBJECT_PTR
  2
CAseDLPNTableRecord
  3
ASE-LPNTableRecord
 90
        1
280
     0
281
     0
  0
CLASS
  1
LAYOUT
  2
AcDbLayout
  3
AutoCAD 2000
 90
        0
280
     1
281
     0
  0
CLASS
  1
PLOTSETTINGS
  2
AcDbPlotSettings
  3
AutoCAD 2000
 90
        0
280
     1
281
     0
  0
CLASS
  1
ACDBDICTIONARYWDFLT
  2
AcDbDictionaryWithDefault
  3
AutoCAD 2000
 90
        0
280
     1
281
     0
  0
CLASS
  1
ACDBPLACEHOLDER
  2
AcDbPlaceHolder
  3
AutoCAD 2000
 90
        0
280
     1
281
     0
  0
CLASS
  1
VBA_PROJECT
  2
AcDbVbaProject
  3
"acadvba"
 90
        1
280
     1
281
     0
  0
CLASS
  1
WIPEOUT
  2
AcDbWipeout
  3
WipeOut|AutoCAD Express Tool|expresstools@autodesk.com
 90
      127
280
     1
281
     1
  0
CLASS
  1
WIPEOUTVARIABLES
  2
AcDbWipeoutVariables
  3
WipeOut|AutoCAD Express Tool|expresstools@autodesk.com
 90
        0
280
     1
281
     0
  0
CLASS
  1
RTEXT
  2
RText
  3
RText|AutoCAD Express Tool|expresstools@autodesk.com
 90
        0
280
     1
281
     1
  0
CLASS
  1
ARCALIGNEDTEXT
  2
AcDbArcAlignedText
  3
ATEXT|AutoCAD Express Tool|expresstools@autodesk.com
 90
        0
280
     1
281
     1
  0
CLASS
  1
LONG_TRANSACTION
  2
AcDbLongTransaction
  3
AutoCAD 2000
 90
        0
280
     0
281
     0
  0
CLASS
  1
LWPOLYLINE
  2
AcDbPolyline
  3
AutoCAD 2000
 90
        0
280
     0
281
     1
  0
CLASS
  1
HATCH
  2
AcDbHatch
  3
AutoCAD 2000
 90
        0
280
     0
281
     1
  0
CLASS
  1
XRECORD
  2
AcDbXrecord
  3
AutoCAD 2000
 90
        0
280
     0
281
     0
  0
CLASS
  1
LONG_TRANSACTION
  2
AcDbLongTransaction
  3
AutoCAD 2000
 90
        0
280
     0
281
     0
  0
CLASS
  1
LWPOLYLINE
  2
AcDbPolyline
  3
AutoCAD 2000
 90
        0
280
     0
281
     1
  0
CLASS
  1
HATCH
  2
AcDbHatch
  3
AutoCAD 2000
 90
        0
280
     0
281
     1
  0
CLASS
  1
XRECORD
  2
AcDbXrecord
  3
AutoCAD 2000
 90
        0
280
     0
281
     0
  0
CLASS
  1
LONG_TRANSACTION
  2
AcDbLongTransaction
  3
AutoCAD 2000
 90
        0
280
     0
281
     0
  0
CLASS
  1
LWPOLYLINE
  2
AcDbPolyline
  3
AutoCAD 2000
 90
        0
280
     0
281
     1
  0
CLASS
  1
HATCH
  2
AcDbHatch
  3
AutoCAD 2000
 90
        0
280
     0
281
     1
  0
CLASS
  1
XRECORD
  2
AcDbXrecord
  3
AutoCAD 2000
 90
        0
280
     0
281
     0
  0
ENDSEC
  0
SECTION
  2
TABLES
  0
TABLE
  2
VPORT
  5
12
330
0
100
AcDbSymbolTable
 70
     7
  0
VPORT
  5
2B18
330
12
100
AcDbSymbolTableRecord
100
AcDbViewportTableRecord
  2
*ACTIVE
 70
     0
 10
0.0
 20
0.0
 11
1.0
 21
1.0
 12
139.0712381352534
 22
141.1649932552
 13
0.0
 23
0.0
 14
1.0
 24
1.0
 15
2.0
 25
2.0
 16
0.0
 26
0.0
 36
1.0
 17
0.0
 27
0.0
 37
0.0
 40
365.8811768721917
 41
1.610591900311526
 42
50.0
 43
0.0
 44
0.0
 50
0.0
 51
0.0
 71
     0
 72
   100
 73
     1
 74
     1
 75
     0
 76
     0
 77
     0
 78
     0
  0
ENDTAB
  0
TABLE
  2
LTYPE
  5
D
330
0
100
AcDbSymbolTable
 70
     3
  0
LTYPE
  5
E
330
D
100
AcDbSymbolTableRecord
100
AcDbLinetypeTableRecord
  2
BYBLOCK
 70
     0
  3

 72
    65
 73
     0
 40
0.0
  0
LTYPE
  5
F
330
D
100
AcDbSymbolTableRecord
100
AcDbLinetypeTableRecord
  2
BYLAYER
 70
     0
  3

 72
    65
 73
     0
 40
0.0
  0
LTYPE
  5
5
330
D
100
AcDbSymbolTableRecord
100
AcDbLinetypeTableRecord
  2
CONTINUOUS
 70
     0
  3
Solid line
 72
    65
 73
     0
 40
0.0
  0
LTYPE
  5
235B
330
D
100
AcDbSymbolTableRecord
100
AcDbLinetypeTableRecord
  2
DOT
 70
     0
  3

 72
    65
 73
     2
 40
6.349999999999997
 49
0.0
 74
     0
 49
-6.349999999999997
 74
     0
  0
LTYPE
  5
235C
330
D
100
AcDbSymbolTableRecord
100
AcDbLinetypeTableRecord
  2
CENTER2
 70
     0
  3

 72
    65
 73
     4
 40
25.4
 49
19.05
 74
     0
 49
-3.174999999999998
 74
     0
 49
3.174999999999998
 74
     0
 49
-3.174999999999998
 74
     0
  0
ENDTAB
  0
TABLE
  2
LAYER
  5
A
330
0
100
AcDbSymbolTable
 70
    10
  0
LAYER
  5
4
330
A
100
AcDbSymbolTableRecord
100
AcDbLayerTableRecord
  2
0
 70
     0
 62
     7
  6
CONTINUOUS
  0
LAYER
  5
24
330
A
100
AcDbSymbolTableRecord
100
AcDbLayerTableRecord
  2
DRAW
 70
     0
 62
     7
  6
CONTINUOUS
  0
LAYER
  5
1F
330
A
100
AcDbSymbolTableRecord
100
AcDbLayerTableRecord
  2
CARTOUCHE
 70
     0
 62
     7
  6
CONTINUOUS
  0
LAYER
  5
571
330
A
100
AcDbSymbolTableRecord
100
AcDbLayerTableRecord
  2
DIM
 70
     0
 62
     3
  6
CONTINUOUS
  0
LAYER
  5
1F18
330
A
100
AcDbSymbolTableRecord
100
AcDbLayerTableRecord
  2
DEFPOINTS
 70
     0
 62
     7
  6
CONTINUOUS
  0
LAYER
  5
235D
330
A
100
AcDbSymbolTableRecord
100
AcDbLayerTableRecord
  2
1
 70
     0
 62
     1
  6
CONTINUOUS
  0
LAYER
  5
235E
330
A
100
AcDbSymbolTableRecord
100
AcDbLayerTableRecord
  2
7
 70
     0
 62
     1
  6
CONTINUOUS
  0
LAYER
  5
235F
330
A
100
AcDbSymbolTableRecord
100
AcDbLayerTableRecord
  2
9
 70
     0
 62
     1
  6
CONTINUOUS
  0
LAYER
  5
2360
330
A
100
AcDbSymbolTableRecord
100
AcDbLayerTableRecord
  2
25
 70
     0
 62
     1
  6
CONTINUOUS
  0
LAYER
  5
2361
330
A
100
AcDbSymbolTableRecord
100
AcDbLayerTableRecord
  2
255
 70
     0
 62
     1
  6
CONTINUOUS
  0
ENDTAB
  0
TABLE
  2
STYLE
  5
B
330
0
100
AcDbSymbolTable
 70
     3
  0
STYLE
  5
C
330
B
100
AcDbSymbolTableRecord
100
AcDbTextStyleTableRecord
  2
STANDARD
 70
     0
 40
0.0
 41
1.0
 50
0.0
 71
     0
 42
0.2
  3
txt
  4

  0
STYLE
  5
1B
330
B
100
AcDbSymbolTableRecord
100
AcDbTextStyleTableRecord
  2
FINDER
 70
     0
 40
1.8
 41
1.0
 50
0.0
 71
     0
 42
1.8
  3
ARIAL.TTF
  4

1001
ACAD
1000
Arial
1071
       34
  0
STYLE
  5
2362
330
B
100
AcDbSymbolTableRecord
100
AcDbTextStyleTableRecord
  2
TSTYLE1
 70
     0
 40
2.0
 41
0.95
 50
0.0
 71
     0
 42
0.2
  3
ARIAL.TTF
  4

1001
ACAD
1000
Arial
1071
    32000
  0
ENDTAB
  0
TABLE
  2
VIEW
  5
10
330
0
100
AcDbSymbolTable
 70
     0
  0
ENDTAB
  0
TABLE
  2
UCS
  5
11
330
0
100
AcDbSymbolTable
 70
     0
  0
ENDTAB
  0
TABLE
  2
APPID
  5
14
330
0
100
AcDbSymbolTable
 70
     1
  0
APPID
  5
15
330
14
100
AcDbSymbolTableRecord
100
AcDbRegAppTableRecord
  2
ACAD
 70
     0
  0
ENDTAB
  0
TABLE
  2
DIMSTYLE
  5
16
330
0
100
AcDbSymbolTable
 70
     5
  0
DIMSTYLE
105
1D
102
{ACAD_REACTORS
330
29DD
330
29EA
102
}
330
16
100
AcDbSymbolTableRecord
100
AcDbDimStyleTableRecord
  2
FINDER
 70
     0
  3

  4

  5

  6

  7

 40
1.0
 41
2.5
 42
2.0
 43
6.5
 44
1.25
 45
0.0
 46
0.0
 47
0.0
 48
0.0
140
3.5
141
2.5
142
0.0
143
0.03937
144
1.0
145
0.0
146
1.0
147
0.625
 71
     0
 72
     0
 73
     0
 74
     0
 75
     0
 76
     0
 77
     1
 78
     8
170
     0
171
     3
172
     1
173
     0
174
     0
175
     0
176
   256
177
   256
178
     2
270
     2
271
     2
272
     2
273
     2
274
     3
340
1B
275
     0
280
     0
281
     0
282
     0
283
     0
284
     8
285
     0
286
     0
287
     3
288
     0
  0
DIMSTYLE
105
2363
330
16
100
AcDbSymbolTableRecord
100
AcDbDimStyleTableRecord
  2
STANDARD
 70
     0
  3

  4

  5

  6

  7

 40
1.0
 41
0.18
 42
0.063
 43
0.38
 44
0.18
 45
0.0
 46
0.0
 47
0.0
 48
0.0
140
0.18
141
0.09
142
0.0
143
25.4
144
1.0
145
0.0
146
1.0
147
0.09
 71
     0
 72
     0
 73
     1
 74
     1
 75
     0
 76
     0
 77
     0
 78
     0
170
     0
171
     2
172
     0
173
     0
174
     0
175
     0
176
     0
177
     0
178
     0
270
     2
271
     4
272
     4
273
     2
274
     2
340
C
275
     0
280
     0
281
     0
282
     0
283
     1
284
     0
285
     0
286
     0
287
     3
288
     0
  0
DIMSTYLE
105
2364
330
16
100
AcDbSymbolTableRecord
100
AcDbDimStyleTableRecord
  2
DSTYLE1
 70
     0
  3

  4

  5

  6

  7

 40
1.0
 41
2.5
 42
0.6
 43
0.38
 44
0.667
 45
0.0
 46
0.0
 47
0.0
 48
0.0
140
2.0
141
0.09
142
0.0
143
25.4
144
1.0
145
0.7
146
0.6
147
0.0
 71
     0
 72
     0
 73
     0
 74
     0
 75
     0
 76
     0
 77
     0
 78
     8
170
     0
171
     2
172
     0
173
     0
174
     0
175
     0
176
     0
177
     0
178
     2
270
     2
271
     2
272
     4
273
     2
274
     2
340
2362
275
     0
280
     0
281
     0
282
     0
283
     1
284
     0
285
     0
286
     0
287
     3
288
     0
  0
DIMSTYLE
105
2365
102
{ACAD_REACTORS
330
2736
330
2737
330
2738
102
}
330
16
100
AcDbSymbolTableRecord
100
AcDbDimStyleTableRecord
  2
DSTYLE2
 70
     0
  3

  4

  5

  6

  7

 40
1.0
 41
2.5
 42
0.6
 43
0.38
 44
0.667
 45
0.0
 46
0.0
 47
0.0
 48
0.0
140
2.0
141
0.09
142
0.0
143
25.4
144
1.0
145
0.7
146
0.6
147
0.0
 71
     0
 72
     0
 73
     0
 74
     0
 75
     0
 76
     0
 77
     0
 78
     8
170
     0
171
     2
172
     0
173
     0
174
     1
175
     0
176
     0
177
     0
178
     2
270
     2
271
     2
272
     4
273
     2
274
     2
340
2362
275
     0
280
     0
281
     0
282
     0
283
     1
284
     0
285
     0
286
     0
287
     3
288
     0
  0
DIMSTYLE
105
2976
330
16
100
AcDbSymbolTableRecord
100
AcDbDimStyleTableRecord
  2
ISO-25
 70
     0
  3

  4

  5

  6

  7

 40
1.0
 41
2.5
 42
0.625
 43
3.75
 44
1.25
 45
0.0
 46
0.0
 47
0.0
 48
0.0
140
2.5
141
2.5
142
0.0
143
0.03937007874016
144
1.0
145
0.0
146
1.0
147
0.625
 71
     0
 72
     0
 73
     0
 74
     0
 75
     0
 76
     0
 77
     1
 78
     8
170
     0
171
     3
172
     1
173
     0
174
     0
175
     0
176
     0
177
     0
178
     0
270
     2
271
     2
272
     2
273
     2
274
     3
340
C
275
     0
280
     0
281
     0
282
     0
283
     0
284
     8
285
     0
286
     0
287
     3
288
     0
  0
ENDTAB
  0
TABLE
  2
BLOCK_RECORD
  5
1
330
0
100
AcDbSymbolTable
 70
    38
  0
BLOCK_RECORD
  5
2
102
{ACAD_XDICTIONARY
360
293F
102
}
330
1
100
AcDbSymbolTableRecord
100
AcDbBlockTableRecord
  2
*MODEL_SPACE
  0
BLOCK_RECORD
  5
7
102
{ACAD_XDICTIONARY
360
2941
102
}
330
1
100
AcDbSymbolTableRecord
100
AcDbBlockTableRecord
  2
*PAPER_SPACE
  0
BLOCK_RECORD
  5
1F10
330
1
100
AcDbSymbolTableRecord
100
AcDbBlockTableRecord
  2
*D0
  0
BLOCK_RECORD
  5
1F1E
330
1
100
AcDbSymbolTableRecord
100
AcDbBlockTableRecord
  2
*D1
  0
BLOCK_RECORD
  5
1F2B
330
1
100
AcDbSymbolTableRecord
100
AcDbBlockTableRecord
  2
*D2
  0
BLOCK_RECORD
  5
1F38
330
1
100
AcDbSymbolTableRecord
100
AcDbBlockTableRecord
  2
*D3
  0
BLOCK_RECORD
  5
1F45
330
1
100
AcDbSymbolTableRecord
100
AcDbBlockTableRecord
  2
*D4
  0
BLOCK_RECORD
  5
216D
330
1
100
AcDbSymbolTableRecord
100
AcDbBlockTableRecord
  2
*X5
  0
BLOCK_RECORD
  5
21A0
330
1
100
AcDbSymbolTableRecord
100
AcDbBlockTableRecord
  2
*X6
  0
BLOCK_RECORD
  5
21B7
330
1
100
AcDbSymbolTableRecord
100
AcDbBlockTableRecord
  2
*X7
  0
BLOCK_RECORD
  5
21C4
330
1
100
AcDbSymbolTableRecord
100
AcDbBlockTableRecord
  2
*X8
  0
BLOCK_RECORD
  5
2255
330
1
100
AcDbSymbolTableRecord
100
AcDbBlockTableRecord
  2
*X9
  0
BLOCK_RECORD
  5
2275
330
1
100
AcDbSymbolTableRecord
100
AcDbBlockTableRecord
  2
*X10
  0
BLOCK_RECORD
  5
22A4
330
1
100
AcDbSymbolTableRecord
100
AcDbBlockTableRecord
  2
*X11
  0
BLOCK_RECORD
  5
22CE
330
1
100
AcDbSymbolTableRecord
100
AcDbBlockTableRecord
  2
*X12
  0
BLOCK_RECORD
  5
2309
330
1
100
AcDbSymbolTableRecord
100
AcDbBlockTableRecord
  2
*D13
  0
BLOCK_RECORD
  5
231B
330
1
100
AcDbSymbolTableRecord
100
AcDbBlockTableRecord
  2
*D14
  0
BLOCK_RECORD
  5
232B
330
1
100
AcDbSymbolTableRecord
100
AcDbBlockTableRecord
  2
*D15
  0
BLOCK_RECORD
  5
233B
330
1
100
AcDbSymbolTableRecord
100
AcDbBlockTableRecord
  2
*D16
  0
BLOCK_RECORD
  5
234B
330
1
100
AcDbSymbolTableRecord
100
AcDbBlockTableRecord
  2
*D17
  0
BLOCK_RECORD
  5
252B
330
1
100
AcDbSymbolTableRecord
100
AcDbBlockTableRecord
  2
*D18
  0
BLOCK_RECORD
  5
2537
330
1
100
AcDbSymbolTableRecord
100
AcDbBlockTableRecord
  2
*D19
  0
BLOCK_RECORD
  5
2543
330
1
100
AcDbSymbolTableRecord
100
AcDbBlockTableRecord
  2
*D20
  0
BLOCK_RECORD
  5
254F
330
1
100
AcDbSymbolTableRecord
100
AcDbBlockTableRecord
  2
*D21
  0
BLOCK_RECORD
  5
255B
330
1
100
AcDbSymbolTableRecord
100
AcDbBlockTableRecord
  2
*D22
  0
BLOCK_RECORD
  5
2609
330
1
100
AcDbSymbolTableRecord
100
AcDbBlockTableRecord
  2
*D23
  0
BLOCK_RECORD
  5
2623
330
1
100
AcDbSymbolTableRecord
100
AcDbBlockTableRecord
  2
*D24
  0
BLOCK_RECORD
  5
262F
330
1
100
AcDbSymbolTableRecord
100
AcDbBlockTableRecord
  2
*D25
  0
BLOCK_RECORD
  5
263B
330
1
100
AcDbSymbolTableRecord
100
AcDbBlockTableRecord
  2
*D26
  0
BLOCK_RECORD
  5
2647
330
1
100
AcDbSymbolTableRecord
100
AcDbBlockTableRecord
  2
*D27
  0
BLOCK_RECORD
  5
2653
330
1
100
AcDbSymbolTableRecord
100
AcDbBlockTableRecord
  2
*D28
  0
BLOCK_RECORD
  5
27E5
330
1
100
AcDbSymbolTableRecord
100
AcDbBlockTableRecord
  2
*D29
  0
BLOCK_RECORD
  5
27F1
330
1
100
AcDbSymbolTableRecord
100
AcDbBlockTableRecord
  2
*D30
  0
BLOCK_RECORD
  5
27FD
330
1
100
AcDbSymbolTableRecord
100
AcDbBlockTableRecord
  2
*D31
  0
BLOCK_RECORD
  5
2809
330
1
100
AcDbSymbolTableRecord
100
AcDbBlockTableRecord
  2
*D32
  0
BLOCK_RECORD
  5
2815
330
1
100
AcDbSymbolTableRecord
100
AcDbBlockTableRecord
  2
*D33
  0
BLOCK_RECORD
  5
29DE
330
1
100
AcDbSymbolTableRecord
100
AcDbBlockTableRecord
  2
*D36
  0
BLOCK_RECORD
  5
29EB
330
1
100
AcDbSymbolTableRecord
100
AcDbBlockTableRecord
  2
*D37
  0
ENDTAB
  0
ENDSEC
  0
SECTION
  2
BLOCKS
  0
BLOCK
  5
3
330
2
100
AcDbEntity
  8
0
100
AcDbBlockBegin
  2
*MODEL_SPACE
 70
     0
 10
0.0
 20
0.0
 30
0.0
  3
*MODEL_SPACE
  1

  0
ENDBLK
  5
6
330
2
100
AcDbEntity
  8
0
100
AcDbBlockEnd
  0
BLOCK
  5
8
330
7
100
AcDbEntity
 67
     1
  8
0
100
AcDbBlockBegin
  2
*PAPER_SPACE
 70
     0
 10
0.0
 20
0.0
 30
0.0
  3
*PAPER_SPACE
  1

  0
ENDBLK
  5
9
330
7
100
AcDbEntity
 67
     1
  8
0
100
AcDbBlockEnd
  0
BLOCK
  5
1F96
330
1F10
100
AcDbEntity
  8
0
100
AcDbBlockBegin
  2
*D0
 70
     1
 10
0.0
 20
0.0
 30
0.0
  3
*D0
  1

  0
LINE
  5
1F97
330
1F10
100
AcDbEntity
  8
0
  6
BYBLOCK
100
AcDbLine
 10
38.35
 20
174.3956239999999
 30
0.0
 11
38.35
 21
182.2499999999999
 31
0.0
  0
LINE
  5
1F98
330
1F10
100
AcDbEntity
  8
0
  6
BYBLOCK
100
AcDbLine
 10
54.15
 20
174.3956239999999
 30
0.0
 11
54.15
 21
182.2499999999999
 31
0.0
  0
LINE
  5
1F99
330
1F10
100
AcDbEntity
  8
0
  6
BYBLOCK
100
AcDbLine
 10
40.84999999999999
 20
181.0
 30
0.0
 11
51.65
 21
181.0
 31
0.0
  0
SOLID
  5
1F9A
330
1F10
100
AcDbEntity
  8
0
  6
BYBLOCK
100
AcDbTrace
 10
40.84999999999999
 20
181.4166669999999
 30
0.0
 11
40.84999999999999
 21
180.583333
 31
0.0
 12
38.35
 22
181.0
 32
0.0
 13
38.35
 23
181.0
 33
0.0
  0
SOLID
  5
1F9B
330
1F10
100
AcDbEntity
  8
0
  6
BYBLOCK
100
AcDbTrace
 10
51.65
 20
181.4166669999999
 30
0.0
 11
51.65
 21
180.583333
 31
0.0
 12
54.15
 22
181.0
 32
0.0
 13
54.15
 23
181.0
 33
0.0
  0
MTEXT
  5
1F9C
330
1F10
100
AcDbEntity
  8
0
  6
BYBLOCK
 62
     2
100
AcDbMText
 10
46.25
 20
182.544031
 30
0.0
 40
1.8
 41
0.0
 71
     5
 72
     5
  1
15.8
  7
FINDER
1001
ACAD
1000
MTEXTBEGIN
1070
    73
1070
     1
1070
    44
1040
1.0
1070
    74
1070
     0
1000
MTEXTEND
1000
MTEXTBEGIN
1070
    73
1070
     1
1070
    44
1040
1.0
1070
    74
1070
     0
1000
MTEXTEND
1000
MTEXTBEGIN
1070
    73
1070
     1
1070
    44
1040
1.0
1070
    74
1070
     0
1000
MTEXTEND
  0
POINT
  5
1F9D
330
1F10
100
AcDbEntity
  8
DEFPOINTS
  6
BYBLOCK
 62
     0
100
AcDbPoint
 10
38.35
 20
172.3956239999999
 30
0.0
  0
POINT
  5
1F9E
330
1F10
100
AcDbEntity
  8
DEFPOINTS
  6
BYBLOCK
 62
     0
100
AcDbPoint
 10
54.15
 20
172.3956239999999
 30
0.0
  0
POINT
  5
1F9F
330
1F10
100
AcDbEntity
  8
DEFPOINTS
  6
BYBLOCK
 62
     0
100
AcDbPoint
 10
54.15
 20
181.0
 30
0.0
  0
ENDBLK
  5
1FA0
330
1F10
100
AcDbEntity
  8
0
100
AcDbBlockEnd
  0
BLOCK
  5
1FAC
330
1F1E
100
AcDbEntity
  8
0
100
AcDbBlockBegin
  2
*D1
 70
     1
 10
0.0
 20
0.0
 30
0.0
  3
*D1
  1

  0
LINE
  5
1FAD
330
1F1E
100
AcDbEntity
  8
0
  6
BYBLOCK
100
AcDbLine
 10
36.65
 20
172.6956239999999
 30
0.0
 11
32.75
 21
172.6956239999999
 31
0.0
  0
LINE
  5
1FAE
330
1F1E
100
AcDbEntity
  8
0
  6
BYBLOCK
100
AcDbLine
 10
36.65
 20
162.195624
 30
0.0
 11
32.75
 21
162.195624
 31
0.0
  0
LINE
  5
1FAF
330
1F1E
100
AcDbEntity
  8
0
  6
BYBLOCK
100
AcDbLine
 10
34.0
 20
170.195624
 30
0.0
 11
34.0
 21
164.695624
 31
0.0
  0
SOLID
  5
1FB0
330
1F1E
100
AcDbEntity
  8
0
  6
BYBLOCK
100
AcDbTrace
 10
33.583333
 20
170.195624
 30
0.0
 11
34.41666699999998
 21
170.195624
 31
0.0
 12
34.0
 22
172.6956239999999
 32
0.0
 13
34.0
 23
172.6956239999999
 33
0.0
  0
SOLID
  5
1FB1
330
1F1E
100
AcDbEntity
  8
0
  6
BYBLOCK
100
AcDbTrace
 10
33.583333
 20
164.695624
 30
0.0
 11
34.41666699999998
 21
164.695624
 31
0.0
 12
34.0
 22
162.195624
 32
0.0
 13
34.0
 23
162.195624
 33
0.0
  0
MTEXT
  5
1FB2
330
1F1E
100
AcDbEntity
  8
0
  6
BYBLOCK
 62
     2
100
AcDbMText
 10
32.455969
 20
167.445624
 30
0.0
 40
1.8
 41
0.0
 71
     5
 72
     5
  1
10.5
  7
FINDER
 11
0.0
 21
1.0
 31
0.0
1001
ACAD
1000
MTEXTBEGIN
1070
    73
1070
     1
1070
    44
1040
1.0
1070
    74
1070
     0
1000
MTEXTEND
1000
MTEXTBEGIN
1070
    73
1070
     1
1070
    44
1040
1.0
1070
    74
1070
     0
1000
MTEXTEND
1000
MTEXTBEGIN
1070
    73
1070
     1
1070
    44
1040
1.0
1070
    74
1070
     0
1000
MTEXTEND
  0
POINT
  5
1FB3
330
1F1E
100
AcDbEntity
  8
DEFPOINTS
  6
BYBLOCK
 62
     0
100
AcDbPoint
 10
38.65
 20
172.6956239999999
 30
0.0
  0
POINT
  5
1FB4
330
1F1E
100
AcDbEntity
  8
DEFPOINTS
  6
BYBLOCK
 62
     0
100
AcDbPoint
 10
38.65
 20
162.195624
 30
0.0
  0
POINT
  5
1FB5
330
1F1E
100
AcDbEntity
  8
DEFPOINTS
  6
BYBLOCK
 62
     0
100
AcDbPoint
 10
34.0
 20
162.195624
 30
0.0
  0
ENDBLK
  5
1FB6
330
1F1E
100
AcDbEntity
  8
0
100
AcDbBlockEnd
  0
BLOCK
  5
1FA1
330
1F2B
100
AcDbEntity
  8
0
100
AcDbBlockBegin
  2
*D2
 70
     1
 10
0.0
 20
0.0
 30
0.0
  3
*D2
  1

  0
LINE
  5
1FA2
330
1F2B
100
AcDbEntity
  8
0
  6
BYBLOCK
100
AcDbLine
 10
36.65
 20
162.195624
 30
0.0
 11
27.75
 21
162.195624
 31
0.0
  0
LINE
  5
1FA3
330
1F2B
100
AcDbEntity
  8
0
  6
BYBLOCK
100
AcDbLine
 10
43.874264
 20
176.695624
 30
0.0
 11
27.75
 21
176.695624
 31
0.0
  0
LINE
  5
1FA4
330
1F2B
100
AcDbEntity
  8
0
  6
BYBLOCK
100
AcDbLine
 10
29.0
 20
164.695624
 30
0.0
 11
29.0
 21
174.195624
 31
0.0
  0
SOLID
  5
1FA5
330
1F2B
100
AcDbEntity
  8
0
  6
BYBLOCK
100
AcDbTrace
 10
28.583333
 20
164.695624
 30
0.0
 11
29.41666699999998
 21
164.695624
 31
0.0
 12
29.0
 22
162.195624
 32
0.0
 13
29.0
 23
162.195624
 33
0.0
  0
SOLID
  5
1FA6
330
1F2B
100
AcDbEntity
  8
0
  6
BYBLOCK
100
AcDbTrace
 10
28.583333
 20
174.195624
 30
0.0
 11
29.41666699999998
 21
174.195624
 31
0.0
 12
29.0
 22
176.695624
 32
0.0
 13
29.0
 23
176.695624
 33
0.0
  0
MTEXT
  5
1FA7
330
1F2B
100
AcDbEntity
  8
0
  6
BYBLOCK
 62
     2
100
AcDbMText
 10
27.455969
 20
169.445624
 30
0.0
 40
1.8
 41
0.0
 71
     5
 72
     5
  1
14.5
  7
FINDER
 11
0.0
 21
1.0
 31
0.0
1001
ACAD
1000
MTEXTBEGIN
1070
    73
1070
     1
1070
    44
1040
1.0
1070
    74
1070
     0
1000
MTEXTEND
1000
MTEXTBEGIN
1070
    73
1070
     1
1070
    44
1040
1.0
1070
    74
1070
     0
1000
MTEXTEND
1000
MTEXTBEGIN
1070
    73
1070
     1
1070
    44
1040
1.0
1070
    74
1070
     0
1000
MTEXTEND
  0
POINT
  5
1FA8
330
1F2B
100
AcDbEntity
  8
DEFPOINTS
  6
BYBLOCK
 62
     0
100
AcDbPoint
 10
38.65
 20
162.195624
 30
0.0
  0
POINT
  5
1FA9
330
1F2B
100
AcDbEntity
  8
DEFPOINTS
  6
BYBLOCK
 62
     0
100
AcDbPoint
 10
45.874264
 20
176.695624
 30
0.0
  0
POINT
  5
1FAA
330
1F2B
100
AcDbEntity
  8
DEFPOINTS
  6
BYBLOCK
 62
     0
100
AcDbPoint
 10
29.0
 20
176.695624
 30
0.0
  0
ENDBLK
  5
1FAB
330
1F2B
100
AcDbEntity
  8
0
100
AcDbBlockEnd
  0
BLOCK
  5
1F5A
330
1F38
100
AcDbEntity
  8
0
100
AcDbBlockBegin
  2
*D3
 70
     1
 10
0.0
 20
0.0
 30
0.0
  3
*D3
  1

  0
LINE
  5
1F5B
330
1F38
100
AcDbEntity
  8
0
  6
BYBLOCK
100
AcDbLine
 10
115.8426629999999
 20
174.695624
 30
0.0
 11
115.8426629999999
 21
182.2499999999999
 31
0.0
  0
LINE
  5
1F5C
330
1F38
100
AcDbEntity
  8
0
  6
BYBLOCK
100
AcDbLine
 10
84.84266299999999
 20
178.695624
 30
0.0
 11
84.84266299999999
 21
182.2499999999999
 31
0.0
  0
LINE
  5
1F5D
330
1F38
100
AcDbEntity
  8
0
  6
BYBLOCK
100
AcDbLine
 10
113.3426629999999
 20
181.0
 30
0.0
 11
87.34266299999999
 21
181.0
 31
0.0
  0
SOLID
  5
1F5E
330
1F38
100
AcDbEntity
  8
0
  6
BYBLOCK
100
AcDbTrace
 10
113.3426629999999
 20
181.4166669999999
 30
0.0
 11
113.3426629999999
 21
180.583333
 31
0.0
 12
115.8426629999999
 22
181.0
 32
0.0
 13
115.8426629999999
 23
181.0
 33
0.0
  0
SOLID
  5
1F5F
330
1F38
100
AcDbEntity
  8
0
  6
BYBLOCK
100
AcDbTrace
 10
87.34266299999999
 20
181.4166669999999
 30
0.0
 11
87.34266299999999
 21
180.583333
 31
0.0
 12
84.84266299999999
 22
181.0
 32
0.0
 13
84.84266299999999
 23
181.0
 33
0.0
  0
MTEXT
  5
1F60
330
1F38
100
AcDbEntity
  8
0
  6
BYBLOCK
 62
     2
100
AcDbMText
 10
100.342663
 20
182.544645
 30
0.0
 40
1.8
 41
0.0
 71
     5
 72
     5
  1
31
  7
FINDER
1001
ACAD
1000
MTEXTBEGIN
1070
    73
1070
     1
1070
    44
1040
1.0
1070
    74
1070
     0
1000
MTEXTEND
1000
MTEXTBEGIN
1070
    73
1070
     1
1070
    44
1040
1.0
1070
    74
1070
     0
1000
MTEXTEND
1000
MTEXTBEGIN
1070
    73
1070
     1
1070
    44
1040
1.0
1070
    74
1070
     0
1000
MTEXTEND
  0
POINT
  5
1F61
330
1F38
100
AcDbEntity
  8
DEFPOINTS
  6
BYBLOCK
 62
     0
100
AcDbPoint
 10
115.8426629999999
 20
172.6956239999999
 30
0.0
  0
POINT
  5
1F62
330
1F38
100
AcDbEntity
  8
DEFPOINTS
  6
BYBLOCK
 62
     0
100
AcDbPoint
 10
84.84266299999999
 20
176.695624
 30
0.0
  0
POINT
  5
1F63
330
1F38
100
AcDbEntity
  8
DEFPOINTS
  6
BYBLOCK
 62
     0
100
AcDbPoint
 10
84.84266299999999
 20
181.0
 30
0.0
  0
ENDBLK
  5
1F64
330
1F38
100
AcDbEntity
  8
0
100
AcDbBlockEnd
  0
BLOCK
  5
2156
330
1F45
100
AcDbEntity
  8
0
100
AcDbBlockBegin
  2
*D4
 70
     1
 10
0.0
 20
0.0
 30
0.0
  3
*D4
  1

  0
LINE
  5
2157
330
1F45
100
AcDbEntity
  8
0
  6
BYBLOCK
100
AcDbLine
 10
79.342663
 20
170.945624
 30
0.0
 11
79.342663
 21
182.2499999999999
 31
0.0
  0
LINE
  5
2158
330
1F45
100
AcDbEntity
  8
0
  6
BYBLOCK
100
AcDbLine
 10
87.34266299999999
 20
181.0
 30
0.0
 11
89.84266299999999
 21
181.0
 31
0.0
  0
LINE
  5
2159
330
1F45
100
AcDbEntity
  8
0
  6
BYBLOCK
100
AcDbLine
 10
76.842663
 20
181.0
 30
0.0
 11
74.342663
 21
181.0
 31
0.0
  0
LINE
  5
215A
330
1F45
100
AcDbEntity
  8
0
  6
BYBLOCK
100
AcDbLine
 10
84.84266299999999
 20
181.0
 30
0.0
 11
79.342663
 21
181.0
 31
0.0
  0
SOLID
  5
215B
330
1F45
100
AcDbEntity
  8
0
  6
BYBLOCK
100
AcDbTrace
 10
87.34266299999999
 20
181.4166669999999
 30
0.0
 11
87.34266299999999
 21
180.583333
 31
0.0
 12
84.84266299999999
 22
181.0
 32
0.0
 13
84.84266299999999
 23
181.0
 33
0.0
  0
SOLID
  5
215C
330
1F45
100
AcDbEntity
  8
0
  6
BYBLOCK
100
AcDbTrace
 10
76.842663
 20
181.4166669999999
 30
0.0
 11
76.842663
 21
180.583333
 31
0.0
 12
79.342663
 22
181.0
 32
0.0
 13
79.342663
 23
181.0
 33
0.0
  0
MTEXT
  5
215D
330
1F45
100
AcDbEntity
  8
0
  6
BYBLOCK
 62
     2
100
AcDbMText
 10
82.09266300000001
 20
182.540348
 30
0.0
 40
1.8
 41
0.0
 71
     5
 72
     5
  1
5.5
  7
FINDER
1001
ACAD
1000
MTEXTBEGIN
1070
    73
1070
     1
1070
    44
1040
1.0
1070
    74
1070
     0
1000
MTEXTEND
1000
MTEXTBEGIN
1070
    73
1070
     1
1070
    44
1040
1.0
1070
    74
1070
     0
1000
MTEXTEND
1000
MTEXTBEGIN
1070
    73
1070
     1
1070
    44
1040
1.0
1070
    74
1070
     0
1000
MTEXTEND
  0
POINT
  5
215E
330
1F45
100
AcDbEntity
  8
DEFPOINTS
  6
BYBLOCK
 62
     0
100
AcDbPoint
 10
84.84266299999999
 20
176.695624
 30
0.0
  0
POINT
  5
215F
330
1F45
100
AcDbEntity
  8
DEFPOINTS
  6
BYBLOCK
 62
     0
100
AcDbPoint
 10
79.342663
 20
168.945624
 30
0.0
  0
POINT
  5
2160
330
1F45
100
AcDbEntity
  8
DEFPOINTS
  6
BYBLOCK
 62
     0
100
AcDbPoint
 10
79.342663
 20
181.0
 30
0.0
  0
ENDBLK
  5
2161
330
1F45
100
AcDbEntity
  8
0
100
AcDbBlockEnd
  0
BLOCK
  5
219E
330
216D
100
AcDbEntity
  8
0
100
AcDbBlockBegin
  2
*X5
 70
     1
 10
0.0
 20
0.0
 30
0.0
  3
*X5
  1

  0
LINE
  5
216E
330
216D
100
AcDbEntity
  8
0
  6
CONTINUOUS
 62
     0
100
AcDbLine
 10
41.23382399999999
 20
20.814544
 30
0.0
 11
42.038521
 21
21.61924099999999
 31
0.0
  0
LINE
  5
216F
330
216D
100
AcDbEntity
  8
0
  6
CONTINUOUS
 62
     0
100
AcDbLine
 10
40.761924
 20
20.625487
 30
0.0
 11
41.99208099999998
 21
21.855644
 31
0.0
  0
LINE
  5
2170
330
216D
100
AcDbEntity
  8
0
  6
CONTINUOUS
 62
     0
100
AcDbLine
 10
42.109364
 20
22.25577
 30
0.0
 11
42.234688
 21
22.381093
 31
0.0
  0
LINE
  5
2171
330
216D
100
AcDbEntity
  8
0
  6
CONTINUOUS
 62
     0
100
AcDbLine
 10
40.38714399999999
 20
20.53354899999998
 30
0.0
 11
41.70923799999999
 21
21.855644
 31
0.0
  0
LINE
  5
2172
330
216D
100
AcDbEntity
  8
0
  6
CONTINUOUS
 62
     0
100
AcDbLine
 10
41.825433
 20
22.25468199999999
 30
0.0
 11
42.248624
 21
22.677873
 31
0.0
  0
LINE
  5
2173
330
216D
100
AcDbEntity
  8
0
  6
CONTINUOUS
 62
     0
100
AcDbLine
 10
40.05277999999999
 20
20.482029
 30
0.0
 11
41.426395
 21
21.855644
 31
0.0
  0
LINE
  5
2174
330
216D
100
AcDbEntity
  8
0
  6
CONTINUOUS
 62
     0
100
AcDbLine
 10
41.541502
 20
22.253593
 30
0.0
 11
42.21409
 21
22.92618099999998
 31
0.0
  0
LINE
  5
2175
330
216D
100
AcDbEntity
  8
0
  6
CONTINUOUS
 62
     0
100
AcDbLine
 10
39.74394
 20
20.456031
 30
0.0
 11
41.143553
 21
21.855644
 31
0.0
  0
LINE
  5
2176
330
216D
100
AcDbEntity
  8
0
  6
CONTINUOUS
 62
     0
100
AcDbLine
 10
41.25757199999998
 20
22.252505
 30
0.0
 11
42.156032
 21
23.15096599999999
 31
0.0
  0
LINE
  5
2177
330
216D
100
AcDbEntity
  8
0
  6
CONTINUOUS
 62
     0
100
AcDbLine
 10
39.448788
 20
20.443722
 30
0.0
 11
40.86070999999999
 21
21.855644
 31
0.0
  0
LINE
  5
2178
330
216D
100
AcDbEntity
  8
0
  6
CONTINUOUS
 62
     0
100
AcDbLine
 10
40.973641
 20
22.251417
 30
0.0
 11
42.08269699999998
 21
23.360473
 31
0.0
  0
LINE
  5
2179
330
216D
100
AcDbEntity
  8
0
  6
CONTINUOUS
 62
     0
100
AcDbLine
 10
39.16676599999997
 20
20.444542
 30
0.0
 11
40.577867
 21
21.855644
 31
0.0
  0
LINE
  5
217A
330
216D
100
AcDbEntity
  8
0
  6
CONTINUOUS
 62
     0
100
AcDbLine
 10
40.68971
 20
22.25032899999999
 30
0.0
 11
41.992262
 21
23.552881
 31
0.0
  0
LINE
  5
217B
330
216D
100
AcDbEntity
  8
0
  6
CONTINUOUS
 62
     0
100
AcDbLine
 10
38.902535
 20
20.463154
 30
0.0
 11
40.17887199999999
 21
21.739491
 31
0.0
  0
LINE
  5
217C
330
216D
100
AcDbEntity
  8
0
  6
CONTINUOUS
 62
     0
100
AcDbLine
 10
40.40577899999997
 20
22.249241
 30
0.0
 11
41.885758
 21
23.729219
 31
0.0
  0
LINE
  5
217D
330
216D
100
AcDbEntity
  8
0
  6
CONTINUOUS
 62
     0
100
AcDbLine
 10
38.650769
 20
20.49423099999998
 30
0.0
 11
39.71113499999999
 21
21.55459599999999
 31
0.0
  0
LINE
  5
217E
330
216D
100
AcDbEntity
  8
0
  6
CONTINUOUS
 62
     0
100
AcDbLine
 10
40.12184799999999
 20
22.24815199999999
 30
0.0
 11
41.763132
 21
23.889436
 31
0.0
  0
LINE
  5
217F
330
216D
100
AcDbEntity
  8
0
  6
CONTINUOUS
 62
     0
100
AcDbLine
 10
38.407693
 20
20.533998
 30
0.0
 11
39.411545
 21
21.53785
 31
0.0
  0
LINE
  5
2180
330
216D
100
AcDbEntity
  8
0
  6
CONTINUOUS
 62
     0
100
AcDbLine
 10
39.83791699999999
 20
22.247064
 30
0.0
 11
41.62484899999999
 21
24.033997
 31
0.0
  0
LINE
  5
2181
330
216D
100
AcDbEntity
  8
0
  6
CONTINUOUS
 62
     0
100
AcDbLine
 10
38.180128
 20
20.589276
 30
0.0
 11
39.162324
 21
21.57147099999999
 31
0.0
  0
LINE
  5
2182
330
216D
100
AcDbEntity
  8
0
  6
CONTINUOUS
 62
     0
100
AcDbLine
 10
39.553986
 20
22.245976
 30
0.0
 11
41.470496
 21
24.16248599999999
 31
0.0
  0
LINE
  5
2183
330
216D
100
AcDbEntity
  8
0
  6
CONTINUOUS
 62
     0
100
AcDbLine
 10
37.96719
 20
20.65917999999999
 30
0.0
 11
38.94359
 21
21.63557999999999
 31
0.0
  0
LINE
  5
2184
330
216D
100
AcDbEntity
  8
0
  6
CONTINUOUS
 62
     0
100
AcDbLine
 10
39.27005499999999
 20
22.244888
 30
0.0
 11
40.10436099999997
 21
23.079194
 31
0.0
  0
LINE
  5
2185
330
216D
100
AcDbEntity
  8
0
  6
CONTINUOUS
 62
     0
100
AcDbLine
 10
40.296756
 20
23.271589
 30
0.0
 11
41.30607499999999
 21
24.280908
 31
0.0
  0
LINE
  5
2186
330
216D
100
AcDbEntity
  8
0
  6
CONTINUOUS
 62
     0
100
AcDbLine
 10
37.762127
 20
20.736959
 30
0.0
 11
38.75166699999999
 21
21.7265
 31
0.0
  0
LINE
  5
2187
330
216D
100
AcDbEntity
  8
0
  6
CONTINUOUS
 62
     0
100
AcDbLine
 10
38.986768
 20
22.244444
 30
0.0
 11
39.821518
 21
23.079194
 31
0.0
  0
LINE
  5
2188
330
216D
100
AcDbEntity
  8
0
  6
CONTINUOUS
 62
     0
100
AcDbLine
 10
40.18585499999999
 20
23.443531
 30
0.0
 11
41.127162
 21
24.384837
 31
0.0
  0
LINE
  5
2189
330
216D
100
AcDbEntity
  8
0
  6
CONTINUOUS
 62
     0
100
AcDbLine
 10
37.567077
 20
20.824752
 30
0.0
 11
38.58724199999999
 21
21.844917
 31
0.0
  0
LINE
  5
218A
330
216D
100
AcDbEntity
  8
0
  6
CONTINUOUS
 62
     0
100
AcDbLine
 10
38.703926
 20
22.244444
 30
0.0
 11
39.538676
 21
23.079194
 31
0.0
  0
LINE
  5
218B
330
216D
100
AcDbEntity
  8
0
  6
CONTINUOUS
 62
     0
100
AcDbLine
 10
40.03559899999999
 20
23.576117
 30
0.0
 11
40.93254199999999
 21
24.47306
 31
0.0
  0
LINE
  5
218C
330
216D
100
AcDbEntity
  8
0
  6
CONTINUOUS
 62
     0
100
AcDbLine
 10
37.386162
 20
20.92667999999997
 30
0.0
 11
38.458814
 21
21.99933199999999
 31
0.0
  0
LINE
  5
218D
330
216D
100
AcDbEntity
  8
0
  6
CONTINUOUS
 62
     0
100
AcDbLine
 10
38.421083
 20
22.244444
 30
0.0
 11
39.255833
 21
23.079194
 31
0.0
  0
LINE
  5
218E
330
216D
100
AcDbEntity
  8
0
  6
CONTINUOUS
 62
     0
100
AcDbLine
 10
39.85366199999999
 20
23.677023
 30
0.0
 11
40.721945
 21
24.545306
 31
0.0
  0
LINE
  5
218F
330
216D
100
AcDbEntity
  8
0
  6
CONTINUOUS
 62
     0
100
AcDbLine
 10
37.22185
 20
21.04521099999999
 30
0.0
 11
38.375638
 21
22.198999
 31
0.0
  0
LINE
  5
2190
330
216D
100
AcDbEntity
  8
0
  6
CONTINUOUS
 62
     0
100
AcDbLine
 10
39.63845399999997
 20
23.744657
 30
0.0
 11
40.501236
 21
24.607439
 31
0.0
  0
LINE
  5
2191
330
216D
100
AcDbEntity
  8
0
  6
CONTINUOUS
 62
     0
100
AcDbLine
 10
37.07656
 20
21.182763
 30
0.0
 11
38.97299
 21
23.079194
 31
0.0
  0
LINE
  5
2192
330
216D
100
AcDbEntity
  8
0
  6
CONTINUOUS
 62
     0
100
AcDbLine
 10
39.38487999999999
 20
23.77392599999998
 30
0.0
 11
40.269576
 21
24.658623
 31
0.0
  0
LINE
  5
2193
330
216D
100
AcDbEntity
  8
0
  6
CONTINUOUS
 62
     0
100
AcDbLine
 10
36.946052
 20
21.335098
 30
0.0
 11
38.69014699999999
 21
23.079194
 31
0.0
  0
LINE
  5
2194
330
216D
100
AcDbEntity
  8
0
  6
CONTINUOUS
 62
     0
100
AcDbLine
 10
39.069245
 20
23.741134
 30
0.0
 11
40.026103
 21
24.697992
 31
0.0
  0
LINE
  5
2195
330
216D
100
AcDbEntity
  8
0
  6
CONTINUOUS
 62
     0
100
AcDbLine
 10
36.825922
 20
21.49781099999999
 30
0.0
 11
38.407305
 21
23.079194
 31
0.0
  0
LINE
  5
2196
330
216D
100
AcDbEntity
  8
0
  6
CONTINUOUS
 62
     0
100
AcDbLine
 10
36.722045
 20
21.676776
 30
0.0
 11
39.76916899999999
 21
24.723901
 31
0.0
  0
LINE
  5
2197
330
216D
100
AcDbEntity
  8
0
  6
CONTINUOUS
 62
     0
100
AcDbLine
 10
36.63367199999999
 20
21.871247
 30
0.0
 11
39.492393
 21
24.729967
 31
0.0
  0
LINE
  5
2198
330
216D
100
AcDbEntity
  8
0
  6
CONTINUOUS
 62
     0
100
AcDbLine
 10
36.558727
 20
22.07914399999999
 30
0.0
 11
39.21488899999999
 21
24.735306
 31
0.0
  0
LINE
  5
2199
330
216D
100
AcDbEntity
  8
0
  6
CONTINUOUS
 62
     0
100
AcDbLine
 10
36.503475
 20
22.30673499999999
 30
0.0
 11
38.910338
 21
24.713597
 31
0.0
  0
LINE
  5
219A
330
216D
100
AcDbEntity
  8
0
  6
CONTINUOUS
 62
     0
100
AcDbLine
 10
36.47892399999999
 20
22.56502699999999
 30
0.0
 11
38.59996399999999
 21
24.686067
 31
0.0
  0
LINE
  5
219B
330
216D
100
AcDbEntity
  8
0
  6
CONTINUOUS
 62
     0
100
AcDbLine
 10
36.497306
 20
22.866251
 30
0.0
 11
38.252546
 21
24.62149099999999
 31
0.0
  0
LINE
  5
219C
330
216D
100
AcDbEntity
  8
0
  6
CONTINUOUS
 62
     0
100
AcDbLine
 10
36.58207
 20
23.233858
 30
0.0
 11
37.861674
 21
24.513462
 31
0.0
  0
LINE
  5
219D
330
216D
100
AcDbEntity
  8
0
  6
CONTINUOUS
 62
     0
100
AcDbLine
 10
36.878958
 20
23.813588
 30
0.0
 11
37.289934
 21
24.224564
 31
0.0
  0
ENDBLK
  5
219F
330
216D
100
AcDbEntity
  8
0
100
AcDbBlockEnd
  0
BLOCK
  5
21B5
330
21A0
100
AcDbEntity
  8
0
100
AcDbBlockBegin
  2
*X6
 70
     1
 10
0.0
 20
0.0
 30
0.0
  3
*X6
  1

  0
LINE
  5
21A1
330
21A0
100
AcDbEntity
  8
0
  6
CONTINUOUS
 62
     0
100
AcDbLine
 10
23.515125
 20
20.63209399999998
 30
0.0
 11
23.625973
 21
20.742941
 31
0.0
  0
LINE
  5
21A2
330
21A0
100
AcDbEntity
  8
0
  6
CONTINUOUS
 62
     0
100
AcDbLine
 10
23.232282
 20
20.63209399999998
 30
0.0
 11
23.625973
 21
21.025784
 31
0.0
  0
LINE
  5
21A3
330
21A0
100
AcDbEntity
  8
0
  6
CONTINUOUS
 62
     0
100
AcDbLine
 10
22.94944
 20
20.63209399999998
 30
0.0
 11
23.625973
 21
21.30862699999998
 31
0.0
  0
LINE
  5
21A4
330
21A0
100
AcDbEntity
  8
0
  6
CONTINUOUS
 62
     0
100
AcDbLine
 10
22.66659699999999
 20
20.63209399999998
 30
0.0
 11
23.625973
 21
21.59147
 31
0.0
  0
LINE
  5
21A5
330
21A0
100
AcDbEntity
  8
0
  6
CONTINUOUS
 62
     0
100
AcDbLine
 10
22.383754
 20
20.63209399999998
 30
0.0
 11
23.625973
 21
21.874312
 31
0.0
  0
LINE
  5
21A6
330
21A0
100
AcDbEntity
  8
0
  6
CONTINUOUS
 62
     0
100
AcDbLine
 10
22.100912
 20
20.63209399999998
 30
0.0
 11
23.625973
 21
22.15715499999999
 31
0.0
  0
LINE
  5
21A7
330
21A0
100
AcDbEntity
  8
0
  6
CONTINUOUS
 62
     0
100
AcDbLine
 10
21.818069
 20
20.63209399999998
 30
0.0
 11
23.625973
 21
22.439998
 31
0.0
  0
LINE
  5
21A8
330
21A0
100
AcDbEntity
  8
0
  6
CONTINUOUS
 62
     0
100
AcDbLine
 10
21.807973
 20
20.90484
 30
0.0
 11
23.625973
 21
22.72283999999999
 31
0.0
  0
LINE
  5
21A9
330
21A0
100
AcDbEntity
  8
0
  6
CONTINUOUS
 62
     0
100
AcDbLine
 10
21.807973
 20
21.187683
 30
0.0
 11
23.625973
 21
23.00568299999999
 31
0.0
  0
LINE
  5
21AA
330
21A0
100
AcDbEntity
  8
0
  6
CONTINUOUS
 62
     0
100
AcDbLine
 10
21.807973
 20
21.47052599999998
 30
0.0
 11
23.625973
 21
23.288526
 31
0.0
  0
LINE
  5
21AB
330
21A0
100
AcDbEntity
  8
0
  6
CONTINUOUS
 62
     0
100
AcDbLine
 10
21.807973
 20
21.753369
 30
0.0
 11
23.625973
 21
23.57136899999999
 31
0.0
  0
LINE
  5
21AC
330
21A0
100
AcDbEntity
  8
0
  6
CONTINUOUS
 62
     0
100
AcDbLine
 10
21.807973
 20
22.03621099999999
 30
0.0
 11
23.625973
 21
23.85421099999998
 31
0.0
  0
LINE
  5
21AD
330
21A0
100
AcDbEntity
  8
0
  6
CONTINUOUS
 62
     0
100
AcDbLine
 10
21.807973
 20
22.319054
 30
0.0
 11
23.625973
 21
24.137054
 31
0.0
  0
LINE
  5
21AE
330
21A0
100
AcDbEntity
  8
0
  6
CONTINUOUS
 62
     0
100
AcDbLine
 10
21.807973
 20
22.601897
 30
0.0
 11
23.625973
 21
24.419897
 31
0.0
  0
LINE
  5
21AF
330
21A0
100
AcDbEntity
  8
0
  6
CONTINUOUS
 62
     0
100
AcDbLine
 10
21.807973
 20
22.884739
 30
0.0
 11
23.431627
 21
24.508394
 31
0.0
  0
LINE
  5
21B0
330
21A0
100
AcDbEntity
  8
0
  6
CONTINUOUS
 62
     0
100
AcDbLine
 10
21.807973
 20
23.167582
 30
0.0
 11
23.148784
 21
24.508394
 31
0.0
  0
LINE
  5
21B1
330
21A0
100
AcDbEntity
  8
0
  6
CONTINUOUS
 62
     0
100
AcDbLine
 10
21.807973
 20
23.45042499999999
 30
0.0
 11
22.865942
 21
24.508394
 31
0.0
  0
LINE
  5
21B2
330
21A0
100
AcDbEntity
  8
0
  6
CONTINUOUS
 62
     0
100
AcDbLine
 10
21.807973
 20
23.733268
 30
0.0
 11
22.58309899999999
 21
24.508394
 31
0.0
  0
LINE
  5
21B3
330
21A0
100
AcDbEntity
  8
0
  6
CONTINUOUS
 62
     0
100
AcDbLine
 10
21.807973
 20
24.01611
 30
0.0
 11
22.300256
 21
24.508394
 31
0.0
  0
LINE
  5
21B4
330
21A0
100
AcDbEntity
  8
0
  6
CONTINUOUS
 62
     0
100
AcDbLine
 10
21.807973
 20
24.298953
 30
0.0
 11
22.017414
 21
24.508394
 31
0.0
  0
ENDBLK
  5
21B6
330
21A0
100
AcDbEntity
  8
0
100
AcDbBlockEnd
  0
BLOCK
  5
21C2
330
21B7
100
AcDbEntity
  8
0
100
AcDbBlockBegin
  2
*X7
 70
     1
 10
0.0
 20
0.0
 30
0.0
  3
*X7
  1

  0
LINE
  5
21B8
330
21B7
100
AcDbEntity
  8
0
  6
CONTINUOUS
 62
     0
100
AcDbLine
 10
23.583484
 20
24.943094
 30
0.0
 11
23.625973
 21
24.985582
 31
0.0
  0
LINE
  5
21B9
330
21B7
100
AcDbEntity
  8
0
  6
CONTINUOUS
 62
     0
100
AcDbLine
 10
23.300642
 20
24.943094
 30
0.0
 11
23.625973
 21
25.268425
 31
0.0
  0
LINE
  5
21BA
330
21B7
100
AcDbEntity
  8
0
  6
CONTINUOUS
 62
     0
100
AcDbLine
 10
23.017799
 20
24.943094
 30
0.0
 11
23.625973
 21
25.551268
 31
0.0
  0
LINE
  5
21BB
330
21B7
100
AcDbEntity
  8
0
  6
CONTINUOUS
 62
     0
100
AcDbLine
 10
22.73495599999999
 20
24.943094
 30
0.0
 11
23.625973
 21
25.83410999999999
 31
0.0
  0
LINE
  5
21BC
330
21B7
100
AcDbEntity
  8
0
  6
CONTINUOUS
 62
     0
100
AcDbLine
 10
22.452114
 20
24.943094
 30
0.0
 11
23.344014
 21
25.834994
 31
0.0
  0
LINE
  5
21BD
330
21B7
100
AcDbEntity
  8
0
  6
CONTINUOUS
 62
     0
100
AcDbLine
 10
22.16927099999999
 20
24.943094
 30
0.0
 11
23.06117099999999
 21
25.834994
 31
0.0
  0
LINE
  5
21BE
330
21B7
100
AcDbEntity
  8
0
  6
CONTINUOUS
 62
     0
100
AcDbLine
 10
21.88642799999999
 20
24.943094
 30
0.0
 11
22.778328
 21
25.834994
 31
0.0
  0
LINE
  5
21BF
330
21B7
100
AcDbEntity
  8
0
  6
CONTINUOUS
 62
     0
100
AcDbLine
 10
21.807973
 20
25.147481
 30
0.0
 11
22.495485
 21
25.834994
 31
0.0
  0
LINE
  5
21C0
330
21B7
100
AcDbEntity
  8
0
  6
CONTINUOUS
 62
     0
100
AcDbLine
 10
21.807973
 20
25.43032399999999
 30
0.0
 11
22.212643
 21
25.834994
 31
0.0
  0
LINE
  5
21C1
330
21B7
100
AcDbEntity
  8
0
  6
CONTINUOUS
 62
     0
100
AcDbLine
 10
21.807973
 20
25.713167
 30
0.0
 11
21.92979999999999
 21
25.834994
 31
0.0
  0
ENDBLK
  5
21C3
330
21B7
100
AcDbEntity
  8
0
100
AcDbBlockEnd
  0
BLOCK
  5
2253
330
21C4
100
AcDbEntity
  8
0
100
AcDbBlockBegin
  2
*X8
 70
     1
 10
0.0
 20
0.0
 30
0.0
  3
*X8
  1

  0
LINE
  5
21C5
330
21C4
100
AcDbEntity
  8
0
  6
CONTINUOUS
 62
     0
100
AcDbLine
 10
14.989467
 20
20.308874
 30
0.0
 11
15.516193
 21
20.83559999999998
 31
0.0
  0
LINE
  5
21C6
330
21C4
100
AcDbEntity
  8
0
  6
CONTINUOUS
 62
     0
100
AcDbLine
 10
14.112517
 20
19.714767
 30
0.0
 11
16.11029999999999
 21
21.71254999999999
 31
0.0
  0
LINE
  5
21C7
330
21C4
100
AcDbEntity
  8
0
  6
CONTINUOUS
 62
     0
100
AcDbLine
 10
13.596595
 20
19.481687
 30
0.0
 11
16.34338
 21
22.228473
 31
0.0
  0
LINE
  5
21C8
330
21C4
100
AcDbEntity
  8
0
  6
CONTINUOUS
 62
     0
100
AcDbLine
 10
13.174894
 20
19.342829
 30
0.0
 11
16.482238
 21
22.650174
 31
0.0
  0
LINE
  5
21C9
330
21C4
100
AcDbEntity
  8
0
  6
CONTINUOUS
 62
     0
100
AcDbLine
 10
12.804844
 20
19.25562199999999
 30
0.0
 11
16.569445
 21
23.020223
 31
0.0
  0
LINE
  5
21CA
330
21C4
100
AcDbEntity
  8
0
  6
CONTINUOUS
 62
     0
100
AcDbLine
 10
14.79535199999999
 20
21.528973
 30
0.0
 11
16.62213299999999
 21
23.355754
 31
0.0
  0
LINE
  5
21CB
330
21C4
100
AcDbEntity
  8
0
  6
CONTINUOUS
 62
     0
100
AcDbLine
 10
12.46931299999999
 20
19.202934
 30
0.0
 11
14.296095
 21
21.029715
 31
0.0
  0
LINE
  5
21CC
330
21C4
100
AcDbEntity
  8
0
  6
CONTINUOUS
 62
     0
100
AcDbLine
 10
15.29353599999999
 20
22.309999
 30
0.0
 11
16.649275
 21
23.665738
 31
0.0
  0
LINE
  5
21CD
330
21C4
100
AcDbEntity
  8
0
  6
CONTINUOUS
 62
     0
100
AcDbLine
 10
12.159329
 20
19.17579299999998
 30
0.0
 11
13.515068
 21
20.531532
 31
0.0
  0
LINE
  5
21CE
330
21C4
100
AcDbEntity
  8
0
  6
CONTINUOUS
 62
     0
100
AcDbLine
 10
15.479088
 20
22.77839399999999
 30
0.0
 11
16.656273
 21
23.955579
 31
0.0
  0
LINE
  5
21CF
330
21C4
100
AcDbEntity
  8
0
  6
CONTINUOUS
 62
     0
100
AcDbLine
 10
11.869488
 20
19.168795
 30
0.0
 11
13.046674
 21
20.34597999999998
 31
0.0
  0
LINE
  5
21D0
330
21C4
100
AcDbEntity
  8
0
  6
CONTINUOUS
 62
     0
100
AcDbLine
 10
15.580082
 20
23.16223099999999
 30
0.0
 11
16.646682
 21
24.22883099999999
 31
0.0
  0
LINE
  5
21D1
330
21C4
100
AcDbEntity
  8
0
  6
CONTINUOUS
 62
     0
100
AcDbLine
 10
11.59623599999999
 20
19.178385
 30
0.0
 11
12.662836
 21
20.24498499999999
 31
0.0
  0
LINE
  5
21D2
330
21C4
100
AcDbEntity
  8
0
  6
CONTINUOUS
 62
     0
100
AcDbLine
 10
12.654531
 20
20.51952299999999
 30
0.0
 11
13.323223
 21
21.188215
 31
0.0
  0
LINE
  5
21D3
330
21C4
100
AcDbEntity
  8
0
  6
CONTINUOUS
 62
     0
100
AcDbLine
 10
15.634125
 20
23.499117
 30
0.0
 11
16.62298599999999
 21
24.48797799999999
 31
0.0
  0
LINE
  5
21D4
330
21C4
100
AcDbEntity
  8
0
  6
CONTINUOUS
 62
     0
100
AcDbLine
 10
11.33709
 20
19.202082
 30
0.0
 11
12.325951
 21
20.190943
 31
0.0
  0
LINE
  5
21D5
330
21C4
100
AcDbEntity
  8
0
  6
CONTINUOUS
 62
     0
100
AcDbLine
 10
12.404347
 20
20.552181
 30
0.0
 11
13.323223
 21
21.471057
 31
0.0
  0
LINE
  5
21D6
330
21C4
100
AcDbEntity
  8
0
  6
CONTINUOUS
 62
     0
100
AcDbLine
 10
15.656425
 20
23.804259
 30
0.0
 11
16.586997
 21
24.734832
 31
0.0
  0
LINE
  5
21D7
330
21C4
100
AcDbEntity
  8
0
  6
CONTINUOUS
 62
     0
100
AcDbLine
 10
11.090236
 20
19.23807
 30
0.0
 11
12.020808
 21
20.16864299999999
 31
0.0
  0
LINE
  5
21D8
330
21C4
100
AcDbEntity
  8
0
  6
CONTINUOUS
 62
     0
100
AcDbLine
 10
12.212553
 20
20.64322999999999
 30
0.0
 11
13.323223
 21
21.7539
 31
0.0
  0
LINE
  5
21D9
330
21C4
100
AcDbEntity
  8
0
  6
CONTINUOUS
 62
     0
100
AcDbLine
 10
15.65496099999999
 20
24.085639
 30
0.0
 11
16.540085
 21
24.970762
 31
0.0
  0
LINE
  5
21DA
330
21C4
100
AcDbEntity
  8
0
  6
CONTINUOUS
 62
     0
100
AcDbLine
 10
10.854306
 20
19.284983
 30
0.0
 11
11.73942899999999
 21
20.170106
 31
0.0
  0
LINE
  5
21DB
330
21C4
100
AcDbEntity
  8
0
  6
CONTINUOUS
 62
     0
100
AcDbLine
 10
12.063213
 20
20.776733
 30
0.0
 11
13.323223
 21
22.03674299999998
 31
0.0
  0
LINE
  5
21DC
330
21C4
100
AcDbEntity
  8
0
  6
CONTINUOUS
 62
     0
100
AcDbLine
 10
15.634541
 20
24.34806
 30
0.0
 11
16.48330599999999
 21
25.196826
 31
0.0
  0
LINE
  5
21DD
330
21C4
100
AcDbEntity
  8
0
  6
CONTINUOUS
 62
     0
100
AcDbLine
 10
10.628242
 20
19.34176099999998
 30
0.0
 11
11.477007
 21
20.190527
 31
0.0
  0
LINE
  5
21DE
330
21C4
100
AcDbEntity
  8
0
  6
CONTINUOUS
 62
     0
100
AcDbLine
 10
11.920447
 20
20.916809
 30
0.0
 11
13.323223
 21
22.319586
 31
0.0
  0
LINE
  5
21DF
330
21C4
100
AcDbEntity
  8
0
  6
CONTINUOUS
 62
     0
100
AcDbLine
 10
15.598315
 20
24.594678
 30
0.0
 11
16.41749599999998
 21
25.413858
 31
0.0
  0
LINE
  5
21E0
330
21C4
100
AcDbEntity
  8
0
  6
CONTINUOUS
 62
     0
100
AcDbLine
 10
10.41120899999999
 20
19.407572
 30
0.0
 11
11.23039
 21
20.22675199999997
 31
0.0
  0
LINE
  5
21E1
330
21C4
100
AcDbEntity
  8
0
  6
CONTINUOUS
 62
     0
100
AcDbLine
 10
11.77768
 20
21.056886
 30
0.0
 11
13.323223
 21
22.60242799999998
 31
0.0
  0
LINE
  5
21E2
330
21C4
100
AcDbEntity
  8
0
  6
CONTINUOUS
 62
     0
100
AcDbLine
 10
15.548478
 20
24.827684
 30
0.0
 11
16.34332099999999
 21
25.622526
 31
0.0
  0
LINE
  5
21E3
330
21C4
100
AcDbEntity
  8
0
  6
CONTINUOUS
 62
     0
100
AcDbLine
 10
10.202541
 20
19.481747
 30
0.0
 11
10.997384
 21
20.276589
 31
0.0
  0
LINE
  5
21E4
330
21C4
100
AcDbEntity
  8
0
  6
CONTINUOUS
 62
     0
100
AcDbLine
 10
12.362923
 20
21.924971
 30
0.0
 11
13.323223
 21
22.885271
 31
0.0
  0
LINE
  5
21E5
330
21C4
100
AcDbEntity
  8
0
  6
CONTINUOUS
 62
     0
100
AcDbLine
 10
11.634914
 20
21.19696199999999
 30
0.0
 11
12.307877
 21
21.869925
 31
0.0
  0
LINE
  5
21E6
330
21C4
100
AcDbEntity
  8
0
  6
CONTINUOUS
 62
     0
100
AcDbLine
 10
15.486619
 20
25.048667
 30
0.0
 11
16.26132099999999
 21
25.823369
 31
0.0
  0
LINE
  5
21E7
330
21C4
100
AcDbEntity
  8
0
  6
CONTINUOUS
 62
     0
100
AcDbLine
 10
10.001699
 20
19.56374699999998
 30
0.0
 11
10.77640099999999
 21
20.338449
 31
0.0
  0
LINE
  5
21E8
330
21C4
100
AcDbEntity
  8
0
  6
CONTINUOUS
 62
     0
100
AcDbLine
 10
12.362923
 20
22.207814
 30
0.0
 11
13.323223
 21
23.168114
 31
0.0
  0
LINE
  5
21E9
330
21C4
100
AcDbEntity
  8
0
  6
CONTINUOUS
 62
     0
100
AcDbLine
 10
11.49214799999999
 20
21.33703899999998
 30
0.0
 11
12.172228
 21
22.017119
 31
0.0
  0
LINE
  5
21EA
330
21C4
100
AcDbEntity
  8
0
  6
CONTINUOUS
 62
     0
100
AcDbLine
 10
15.41392
 20
25.25881099999999
 30
0.0
 11
16.171934
 21
26.016825
 31
0.0
  0
LINE
  5
21EB
330
21C4
100
AcDbEntity
  8
0
  6
CONTINUOUS
 62
     0
100
AcDbLine
 10
9.808242999999999
 20
19.65313399999998
 30
0.0
 11
10.566257
 21
20.411147
 31
0.0
  0
LINE
  5
21EC
330
21C4
100
AcDbEntity
  8
0
  6
CONTINUOUS
 62
     0
100
AcDbLine
 10
12.362923
 20
22.490656
 30
0.0
 11
13.323223
 21
23.450956
 31
0.0
  0
LINE
  5
21ED
330
21C4
100
AcDbEntity
  8
0
  6
CONTINUOUS
 62
     0
100
AcDbLine
 10
14.38066
 20
24.508394
 30
0.0
 11
14.903943
 21
25.031677
 31
0.0
  0
LINE
  5
21EE
330
21C4
100
AcDbEntity
  8
0
  6
CONTINUOUS
 62
     0
100
AcDbLine
 10
11.349382
 20
21.47711499999999
 30
0.0
 11
12.03658
 21
22.16431299999999
 31
0.0
  0
LINE
  5
21EF
330
21C4
100
AcDbEntity
  8
0
  6
CONTINUOUS
 62
     0
100
AcDbLine
 10
15.33128299999999
 20
25.459017
 30
0.0
 11
16.07551799999999
 21
26.203251
 31
0.0
  0
LINE
  5
21F0
330
21C4
100
AcDbEntity
  8
0
  6
CONTINUOUS
 62
     0
100
AcDbLine
 10
9.621817
 20
19.74954999999998
 30
0.0
 11
10.36605099999998
 21
20.49378399999997
 31
0.0
  0
LINE
  5
21F1
330
21C4
100
AcDbEntity
  8
0
  6
CONTINUOUS
 62
     0
100
AcDbLine
 10
12.362923
 20
22.77349899999999
 30
0.0
 11
13.323223
 21
23.73379899999999
 31
0.0
  0
LINE
  5
21F2
330
21C4
100
AcDbEntity
  8
0
  6
CONTINUOUS
 62
     0
100
AcDbLine
 10
14.097817
 20
24.508394
 30
0.0
 11
14.840413
 21
25.25098999999999
 31
0.0
  0
LINE
  5
21F3
330
21C4
100
AcDbEntity
  8
0
  6
CONTINUOUS
 62
     0
100
AcDbLine
 10
11.206616
 20
21.617192
 30
0.0
 11
11.900931
 21
22.311507
 31
0.0
  0
LINE
  5
21F4
330
21C4
100
AcDbEntity
  8
0
  6
CONTINUOUS
 62
     0
100
AcDbLine
 10
15.2394
 20
25.649976
 30
0.0
 11
15.972362
 21
26.382939
 31
0.0
  0
LINE
  5
21F5
330
21C4
100
AcDbEntity
  8
0
  6
CONTINUOUS
 62
     0
100
AcDbLine
 10
9.442128999999999
 20
19.852705
 30
0.0
 11
10.175091
 21
20.58566799999999
 31
0.0
  0
LINE
  5
21F6
330
21C4
100
AcDbEntity
  8
0
  6
CONTINUOUS
 62
     0
100
AcDbLine
 10
12.362923
 20
23.056342
 30
0.0
 11
13.323223
 21
24.016642
 31
0.0
  0
LINE
  5
21F7
330
21C4
100
AcDbEntity
  8
0
  6
CONTINUOUS
 62
     0
100
AcDbLine
 10
13.814975
 20
24.508394
 30
0.0
 11
14.709087
 21
25.402506
 31
0.0
  0
LINE
  5
21F8
330
21C4
100
AcDbEntity
  8
0
  6
CONTINUOUS
 62
     0
100
AcDbLine
 10
11.063849
 20
21.757268
 30
0.0
 11
11.765282
 21
22.458701
 31
0.0
  0
LINE
  5
21F9
330
21C4
100
AcDbEntity
  8
0
  6
CONTINUOUS
 62
     0
100
AcDbLine
 10
15.13880499999999
 20
25.832223
 30
0.0
 11
15.86270299999999
 21
26.556122
 31
0.0
  0
LINE
  5
21FA
330
21C4
100
AcDbEntity
  8
0
  6
CONTINUOUS
 62
     0
100
AcDbLine
 10
9.268945
 20
19.962364
 30
0.0
 11
9.992843999999999
 21
20.686263
 31
0.0
  0
LINE
  5
21FB
330
21C4
100
AcDbEntity
  8
0
  6
CONTINUOUS
 62
     0
100
AcDbLine
 10
12.362923
 20
23.339185
 30
0.0
 11
13.323223
 21
24.299485
 31
0.0
  0
LINE
  5
21FC
330
21C4
100
AcDbEntity
  8
0
  6
CONTINUOUS
 62
     0
100
AcDbLine
 10
13.532132
 20
24.508394
 30
0.0
 11
14.51689299999999
 21
25.493154
 31
0.0
  0
LINE
  5
21FD
330
21C4
100
AcDbEntity
  8
0
  6
CONTINUOUS
 62
     0
100
AcDbLine
 10
10.921083
 20
21.897345
 30
0.0
 11
11.62963399999999
 21
22.605895
 31
0.0
  0
LINE
  5
21FE
330
21C4
100
AcDbEntity
  8
0
  6
CONTINUOUS
 62
     0
100
AcDbLine
 10
15.029907
 20
26.006168
 30
0.0
 11
15.74672699999999
 21
26.722988
 31
0.0
  0
LINE
  5
21FF
330
21C4
100
AcDbEntity
  8
0
  6
CONTINUOUS
 62
     0
100
AcDbLine
 10
9.102078999999999
 20
20.078341
 30
0.0
 11
9.818899
 21
20.795161
 31
0.0
  0
LINE
  5
2200
330
21C4
100
AcDbEntity
  8
0
  6
CONTINUOUS
 62
     0
100
AcDbLine
 10
12.362923
 20
23.622027
 30
0.0
 11
14.244239
 21
25.503344
 31
0.0
  0
LINE
  5
2201
330
21C4
100
AcDbEntity
  8
0
  6
CONTINUOUS
 62
     0
100
AcDbLine
 10
10.77831699999999
 20
22.03742099999999
 30
0.0
 11
11.49398499999999
 21
22.753089
 31
0.0
  0
LINE
  5
2202
330
21C4
100
AcDbEntity
  8
0
  6
CONTINUOUS
 62
     0
100
AcDbLine
 10
14.913014
 20
26.172119
 30
0.0
 11
15.62457699999999
 21
26.88368099999999
 31
0.0
  0
LINE
  5
2203
330
21C4
100
AcDbEntity
  8
0
  6
CONTINUOUS
 62
     0
100
AcDbLine
 10
8.941385999999997
 20
20.200491
 30
0.0
 11
9.652948999999999
 21
20.91205299999999
 31
0.0
  0
LINE
  5
2204
330
21C4
100
AcDbEntity
  8
0
  6
CONTINUOUS
 62
     0
100
AcDbLine
 10
12.362923
 20
23.90487
 30
0.0
 11
13.96139699999999
 21
25.503344
 31
0.0
  0
LINE
  5
2205
330
21C4
100
AcDbEntity
  8
0
  6
CONTINUOUS
 62
     0
100
AcDbLine
 10
10.635551
 20
22.17749799999999
 30
0.0
 11
11.35833599999999
 21
22.90028299999999
 31
0.0
  0
LINE
  5
2206
330
21C4
100
AcDbEntity
  8
0
  6
CONTINUOUS
 62
     0
100
AcDbLine
 10
14.78835
 20
26.33029699999999
 30
0.0
 11
15.49636
 21
27.038307
 31
0.0
  0
LINE
  5
2207
330
21C4
100
AcDbEntity
  8
0
  6
CONTINUOUS
 62
     0
100
AcDbLine
 10
8.786760000000001
 20
20.328707
 30
0.0
 11
9.494771
 21
21.036718
 31
0.0
  0
LINE
  5
2208
330
21C4
100
AcDbEntity
  8
0
  6
CONTINUOUS
 62
     0
100
AcDbLine
 10
12.362923
 20
24.187713
 30
0.0
 11
13.678554
 21
25.503344
 31
0.0
  0
LINE
  5
2209
330
21C4
100
AcDbEntity
  8
0
  6
CONTINUOUS
 62
     0
100
AcDbLine
 10
10.492785
 20
22.317574
 30
0.0
 11
11.222688
 21
23.047477
 31
0.0
  0
LINE
  5
220A
330
21C4
100
AcDbEntity
  8
0
  6
CONTINUOUS
 62
     0
100
AcDbLine
 10
14.65606
 20
26.48085
 30
0.0
 11
15.362148
 21
27.186938
 31
0.0
  0
LINE
  5
220B
330
21C4
100
AcDbEntity
  8
0
  6
CONTINUOUS
 62
     0
100
AcDbLine
 10
8.63813
 20
20.46291899999999
 30
0.0
 11
9.344217999999999
 21
21.16900799999998
 31
0.0
  0
LINE
  5
220C
330
21C4
100
AcDbEntity
  8
0
  6
CONTINUOUS
 62
     0
100
AcDbLine
 10
12.362923
 20
24.47055499999999
 30
0.0
 11
13.39571099999999
 21
25.503344
 31
0.0
  0
LINE
  5
220D
330
21C4
100
AcDbEntity
  8
0
  6
CONTINUOUS
 62
     0
100
AcDbLine
 10
10.35001799999998
 20
22.457651
 30
0.0
 11
11.087039
 21
23.194672
 31
0.0
  0
LINE
  5
220E
330
21C4
100
AcDbEntity
  8
0
  6
CONTINUOUS
 62
     0
100
AcDbLine
 10
14.51622399999999
 20
26.623856
 30
0.0
 11
15.221979
 21
27.329612
 31
0.0
  0
LINE
  5
220F
330
21C4
100
AcDbEntity
  8
0
  6
CONTINUOUS
 62
     0
100
AcDbLine
 10
8.495455999999999
 20
20.603088
 30
0.0
 11
9.201211
 21
21.308844
 31
0.0
  0
LINE
  5
2210
330
21C4
100
AcDbEntity
  8
0
  6
CONTINUOUS
 62
     0
100
AcDbLine
 10
11.020368
 20
23.410844
 30
0.0
 11
11.41387299999998
 21
23.804348
 31
0.0
  0
LINE
  5
2211
330
21C4
100
AcDbEntity
  8
0
  6
CONTINUOUS
 62
     0
100
AcDbLine
 10
12.362923
 20
24.753398
 30
0.0
 11
13.323223
 21
25.713698
 31
0.0
  0
LINE
  5
2212
330
21C4
100
AcDbEntity
  8
0
  6
CONTINUOUS
 62
     0
100
AcDbLine
 10
10.20725199999999
 20
22.597727
 30
0.0
 11
10.951391
 21
23.341866
 31
0.0
  0
LINE
  5
2213
330
21C4
100
AcDbEntity
  8
0
  6
CONTINUOUS
 62
     0
100
AcDbLine
 10
14.368854
 20
26.75933
 30
0.0
 11
15.07586
 21
27.466336
 31
0.0
  0
LINE
  5
2214
330
21C4
100
AcDbEntity
  8
0
  6
CONTINUOUS
 62
     0
100
AcDbLine
 10
8.358731999999998
 20
20.749207
 30
0.0
 11
9.065737999999999
 21
21.456213
 31
0.0
  0
LINE
  5
2215
330
21C4
100
AcDbEntity
  8
0
  6
CONTINUOUS
 62
     0
100
AcDbLine
 10
12.362923
 20
25.036241
 30
0.0
 11
13.323223
 21
25.996541
 31
0.0
  0
LINE
  5
2216
330
21C4
100
AcDbEntity
  8
0
  6
CONTINUOUS
 62
     0
100
AcDbLine
 10
10.064486
 20
22.737804
 30
0.0
 11
11.41387299999998
 21
24.087191
 31
0.0
  0
LINE
  5
2217
330
21C4
100
AcDbEntity
  8
0
  6
CONTINUOUS
 62
     0
100
AcDbLine
 10
14.213901
 20
26.887219
 30
0.0
 11
14.923766
 21
27.597084
 31
0.0
  0
LINE
  5
2218
330
21C4
100
AcDbEntity
  8
0
  6
CONTINUOUS
 62
     0
100
AcDbLine
 10
8.227983
 20
20.901301
 30
0.0
 11
8.937847999999997
 21
21.611166
 31
0.0
  0
LINE
  5
2219
330
21C4
100
AcDbEntity
  8
0
  6
CONTINUOUS
 62
     0
100
AcDbLine
 10
12.362923
 20
25.319084
 30
0.0
 11
13.323223
 21
26.279384
 31
0.0
  0
LINE
  5
221A
330
21C4
100
AcDbEntity
  8
0
  6
CONTINUOUS
 62
     0
100
AcDbLine
 10
9.92172
 20
22.87787999999999
 30
0.0
 11
11.41387299999998
 21
24.370034
 31
0.0
  0
LINE
  5
221B
330
21C4
100
AcDbEntity
  8
0
  6
CONTINUOUS
 62
     0
100
AcDbLine
 10
14.05124599999999
 20
27.007407
 30
0.0
 11
14.76563999999999
 21
27.7218
 31
0.0
  0
LINE
  5
221C
330
21C4
100
AcDbEntity
  8
0
  6
CONTINUOUS
 62
     0
100
AcDbLine
 10
8.103267
 20
21.059428
 30
0.0
 11
8.81766
 21
21.77382099999999
 31
0.0
  0
LINE
  5
221D
330
21C4
100
AcDbEntity
  8
0
  6
CONTINUOUS
 62
     0
100
AcDbLine
 10
12.362923
 20
25.601926
 30
0.0
 11
13.323223
 21
26.562226
 31
0.0
  0
LINE
  5
221E
330
21C4
100
AcDbEntity
  8
0
  6
CONTINUOUS
 62
     0
100
AcDbLine
 10
9.778953999999997
 20
23.017957
 30
0.0
 11
11.41387299999998
 21
24.652876
 31
0.0
  0
LINE
  5
221F
330
21C4
100
AcDbEntity
  8
0
  6
CONTINUOUS
 62
     0
100
AcDbLine
 10
13.880701
 20
27.119704
 30
0.0
 11
14.601389
 21
27.840392
 31
0.0
  0
LINE
  5
2220
330
21C4
100
AcDbEntity
  8
0
  6
CONTINUOUS
 62
     0
100
AcDbLine
 10
7.984675
 20
21.223678
 30
0.0
 11
8.705363999999999
 21
21.944367
 31
0.0
  0
LINE
  5
2221
330
21C4
100
AcDbEntity
  8
0
  6
CONTINUOUS
 62
     0
100
AcDbLine
 10
12.362923
 20
25.88476899999999
 30
0.0
 11
13.323223
 21
26.845069
 31
0.0
  0
LINE
  5
2222
330
21C4
100
AcDbEntity
  8
0
  6
CONTINUOUS
 62
     0
100
AcDbLine
 10
9.636186999999999
 20
23.158033
 30
0.0
 11
11.41387299999998
 21
24.935719
 31
0.0
  0
LINE
  5
2223
330
21C4
100
AcDbEntity
  8
0
  6
CONTINUOUS
 62
     0
100
AcDbLine
 10
13.701993
 20
27.223839
 30
0.0
 11
14.430886
 21
27.952732
 31
0.0
  0
LINE
  5
2224
330
21C4
100
AcDbEntity
  8
0
  6
CONTINUOUS
 62
     0
100
AcDbLine
 10
7.872335
 20
21.39418099999998
 30
0.0
 11
8.601228
 21
22.12307399999999
 31
0.0
  0
LINE
  5
2225
330
21C4
100
AcDbEntity
  8
0
  6
CONTINUOUS
 62
     0
100
AcDbLine
 10
12.362923
 20
26.167612
 30
0.0
 11
13.323223
 21
27.12791199999999
 31
0.0
  0
LINE
  5
2226
330
21C4
100
AcDbEntity
  8
0
  6
CONTINUOUS
 62
     0
100
AcDbLine
 10
9.493420999999999
 20
23.29811
 30
0.0
 11
11.41387299999998
 21
25.218562
 31
0.0
  0
LINE
  5
2227
330
21C4
100
AcDbEntity
  8
0
  6
CONTINUOUS
 62
     0
100
AcDbLine
 10
13.51476
 20
27.31944799999999
 30
0.0
 11
14.253964
 21
28.058653
 31
0.0
  0
LINE
  5
2228
330
21C4
100
AcDbEntity
  8
0
  6
CONTINUOUS
 62
     0
100
AcDbLine
 10
7.766414999999997
 20
21.571104
 30
0.0
 11
8.505618999999999
 21
22.310308
 31
0.0
  0
LINE
  5
2229
330
21C4
100
AcDbEntity
  8
0
  6
CONTINUOUS
 62
     0
100
AcDbLine
 10
10.46482299999998
 20
24.552354
 30
0.0
 11
11.41387299999998
 21
25.501404
 31
0.0
  0
LINE
  5
222A
330
21C4
100
AcDbEntity
  8
0
  6
CONTINUOUS
 62
     0
100
AcDbLine
 10
9.323311999999999
 20
23.410844
 30
0.0
 11
10.34121199999999
 21
24.428744
 31
0.0
  0
LINE
  5
222B
330
21C4
100
AcDbEntity
  8
0
  6
CONTINUOUS
 62
     0
100
AcDbLine
 10
12.362923
 20
26.45045399999998
 30
0.0
 11
14.07040799999998
 21
28.157939
 31
0.0
  0
LINE
  5
222C
330
21C4
100
AcDbEntity
  8
0
  6
CONTINUOUS
 62
     0
100
AcDbLine
 10
7.667127999999999
 20
21.75466
 30
0.0
 11
8.419014
 21
22.506545
 31
0.0
  0
LINE
  5
222D
330
21C4
100
AcDbEntity
  8
0
  6
CONTINUOUS
 62
     0
100
AcDbLine
 10
10.46482299999998
 20
24.835197
 30
0.0
 11
11.41387299999998
 21
25.784247
 31
0.0
  0
LINE
  5
222E
330
21C4
100
AcDbEntity
  8
0
  6
CONTINUOUS
 62
     0
100
AcDbLine
 10
9.040468999999999
 20
23.410844
 30
0.0
 11
10.058369
 21
24.428744
 31
0.0
  0
LINE
  5
222F
330
21C4
100
AcDbEntity
  8
0
  6
CONTINUOUS
 62
     0
100
AcDbLine
 10
12.362923
 20
26.733297
 30
0.0
 11
13.87995199999999
 21
28.250326
 31
0.0
  0
LINE
  5
2230
330
21C4
100
AcDbEntity
  8
0
  6
CONTINUOUS
 62
     0
100
AcDbLine
 10
7.574741
 20
21.94511599999999
 30
0.0
 11
8.342033999999998
 21
22.712408
 31
0.0
  0
LINE
  5
2231
330
21C4
100
AcDbEntity
  8
0
  6
CONTINUOUS
 62
     0
100
AcDbLine
 10
10.46482299999998
 20
25.11804
 30
0.0
 11
11.41387299999998
 21
26.06709
 31
0.0
  0
LINE
  5
2232
330
21C4
100
AcDbEntity
  8
0
  6
CONTINUOUS
 62
     0
100
AcDbLine
 10
8.757627000000001
 20
23.410844
 30
0.0
 11
9.775527
 21
24.428744
 31
0.0
  0
LINE
  5
2233
330
21C4
100
AcDbEntity
  8
0
  6
CONTINUOUS
 62
     0
100
AcDbLine
 10
12.362923
 20
27.01614
 30
0.0
 11
13.682269
 21
28.335486
 31
0.0
  0
LINE
  5
2234
330
21C4
100
AcDbEntity
  8
0
  6
CONTINUOUS
 62
     0
100
AcDbLine
 10
7.489582
 20
22.142799
 30
0.0
 11
8.275484
 21
22.928701
 31
0.0
  0
LINE
  5
2235
330
21C4
100
AcDbEntity
  8
0
  6
CONTINUOUS
 62
     0
100
AcDbLine
 10
10.46482299999998
 20
25.400883
 30
0.0
 11
11.41387299999998
 21
26.349933
 31
0.0
  0
LINE
  5
2236
330
21C4
100
AcDbEntity
  8
0
  6
CONTINUOUS
 62
     0
100
AcDbLine
 10
8.474783999999999
 20
23.410844
 30
0.0
 11
9.492683999999997
 21
24.428744
 31
0.0
  0
LINE
  5
2237
330
21C4
100
AcDbEntity
  8
0
  6
CONTINUOUS
 62
     0
100
AcDbLine
 10
12.362923
 20
27.298983
 30
0.0
 11
13.47695599999999
 21
28.41301599999999
 31
0.0
  0
LINE
  5
2238
330
21C4
100
AcDbEntity
  8
0
  6
CONTINUOUS
 62
     0
100
AcDbLine
 10
7.412052
 20
22.34811099999999
 30
0.0
 11
8.220416999999999
 21
23.15647699999999
 31
0.0
  0
LINE
  5
2239
330
21C4
100
AcDbEntity
  8
0
  6
CONTINUOUS
 62
     0
100
AcDbLine
 10
10.46482299999998
 20
25.683725
 30
0.0
 11
11.41387299999998
 21
26.63277499999999
 31
0.0
  0
LINE
  5
223A
330
21C4
100
AcDbEntity
  8
0
  6
CONTINUOUS
 62
     0
100
AcDbLine
 10
8.191940999999998
 20
23.410844
 30
0.0
 11
9.209841
 21
24.428744
 31
0.0
  0
LINE
  5
223B
330
21C4
100
AcDbEntity
  8
0
  6
CONTINUOUS
 62
     0
100
AcDbLine
 10
12.362923
 20
27.581825
 30
0.0
 11
13.26352
 21
28.48242299999999
 31
0.0
  0
LINE
  5
223C
330
21C4
100
AcDbEntity
  8
0
  6
CONTINUOUS
 62
     0
100
AcDbLine
 10
7.342645
 20
22.561547
 30
0.0
 11
8.178233
 21
23.397136
 31
0.0
  0
LINE
  5
223D
330
21C4
100
AcDbEntity
  8
0
  6
CONTINUOUS
 62
     0
100
AcDbLine
 10
10.46482299999998
 20
25.96656799999999
 30
0.0
 11
11.41387299999998
 21
26.915618
 31
0.0
  0
LINE
  5
223E
330
21C4
100
AcDbEntity
  8
0
  6
CONTINUOUS
 62
     0
100
AcDbLine
 10
12.17248399999999
 20
27.67422899999999
 30
0.0
 11
13.04135099999998
 21
28.543096
 31
0.0
  0
LINE
  5
223F
330
21C4
100
AcDbEntity
  8
0
  6
CONTINUOUS
 62
     0
100
AcDbLine
 10
7.281971
 20
22.783716
 30
0.0
 11
8.926999
 21
24.428744
 31
0.0
  0
LINE
  5
2240
330
21C4
100
AcDbEntity
  8
0
  6
CONTINUOUS
 62
     0
100
AcDbLine
 10
10.46482299999998
 20
26.249411
 30
0.0
 11
11.41387299999998
 21
27.19846099999999
 31
0.0
  0
LINE
  5
2241
330
21C4
100
AcDbEntity
  8
0
  6
CONTINUOUS
 62
     0
100
AcDbLine
 10
11.899556
 20
27.684144
 30
0.0
 11
12.809691
 21
28.594279
 31
0.0
  0
LINE
  5
2242
330
21C4
100
AcDbEntity
  8
0
  6
CONTINUOUS
 62
     0
100
AcDbLine
 10
7.230788
 20
23.015376
 30
0.0
 11
8.644156
 21
24.428744
 31
0.0
  0
LINE
  5
2243
330
21C4
100
AcDbEntity
  8
0
  6
CONTINUOUS
 62
     0
100
AcDbLine
 10
10.46482299999998
 20
26.532253
 30
0.0
 11
11.41387299999998
 21
27.481303
 31
0.0
  0
LINE
  5
2244
330
21C4
100
AcDbEntity
  8
0
  6
CONTINUOUS
 62
     0
100
AcDbLine
 10
11.605159
 20
27.672589
 30
0.0
 11
12.567584
 21
28.635015
 31
0.0
  0
LINE
  5
2245
330
21C4
100
AcDbEntity
  8
0
  6
CONTINUOUS
 62
     0
100
AcDbLine
 10
7.190052
 20
23.25748299999998
 30
0.0
 11
8.361313
 21
24.428744
 31
0.0
  0
LINE
  5
2246
330
21C4
100
AcDbEntity
  8
0
  6
CONTINUOUS
 62
     0
100
AcDbLine
 10
10.46482299999998
 20
26.815096
 30
0.0
 11
12.313807
 21
28.66407999999999
 31
0.0
  0
LINE
  5
2247
330
21C4
100
AcDbEntity
  8
0
  6
CONTINUOUS
 62
     0
100
AcDbLine
 10
7.160988
 20
23.51126099999999
 30
0.0
 11
8.191864
 21
24.542137
 31
0.0
  0
LINE
  5
2248
330
21C4
100
AcDbEntity
  8
0
  6
CONTINUOUS
 62
     0
100
AcDbLine
 10
10.46482299999998
 20
27.097939
 30
0.0
 11
12.046753
 21
28.679869
 31
0.0
  0
LINE
  5
2249
330
21C4
100
AcDbEntity
  8
0
  6
CONTINUOUS
 62
     0
100
AcDbLine
 10
7.145197999999997
 20
23.778314
 30
0.0
 11
8.270421
 21
24.903537
 31
0.0
  0
LINE
  5
224A
330
21C4
100
AcDbEntity
  8
0
  6
CONTINUOUS
 62
     0
100
AcDbLine
 10
10.46482299999998
 20
27.380782
 30
0.0
 11
11.76425899999999
 21
28.68021699999999
 31
0.0
  0
LINE
  5
224B
330
21C4
100
AcDbEntity
  8
0
  6
CONTINUOUS
 62
     0
100
AcDbLine
 10
7.144849999999999
 20
24.060809
 30
0.0
 11
8.412672
 21
25.328631
 31
0.0
  0
LINE
  5
224C
330
21C4
100
AcDbEntity
  8
0
  6
CONTINUOUS
 62
     0
100
AcDbLine
 10
9.92464
 20
27.12344099999999
 30
0.0
 11
11.463286
 21
28.66208699999999
 31
0.0
  0
LINE
  5
224D
330
21C4
100
AcDbEntity
  8
0
  6
CONTINUOUS
 62
     0
100
AcDbLine
 10
7.16298
 20
24.361781
 30
0.0
 11
8.701625999999999
 21
25.900428
 31
0.0
  0
LINE
  5
224E
330
21C4
100
AcDbEntity
  8
0
  6
CONTINUOUS
 62
     0
100
AcDbLine
 10
7.204077999999999
 20
24.685722
 30
0.0
 11
11.139345
 21
28.620989
 31
0.0
  0
LINE
  5
224F
330
21C4
100
AcDbEntity
  8
0
  6
CONTINUOUS
 62
     0
100
AcDbLine
 10
7.275296
 20
25.03978299999999
 30
0.0
 11
10.785285
 21
28.549771
 31
0.0
  0
LINE
  5
2250
330
21C4
100
AcDbEntity
  8
0
  6
CONTINUOUS
 62
     0
100
AcDbLine
 10
7.389392999999999
 20
25.436722
 30
0.0
 11
10.38834499999998
 21
28.435675
 31
0.0
  0
LINE
  5
2251
330
21C4
100
AcDbEntity
  8
0
  6
CONTINUOUS
 62
     0
100
AcDbLine
 10
7.574053999999997
 20
25.904226
 30
0.0
 11
9.920840999999999
 21
28.251013
 31
0.0
  0
LINE
  5
2252
330
21C4
100
AcDbEntity
  8
0
  6
CONTINUOUS
 62
     0
100
AcDbLine
 10
7.923914999999999
 20
26.53693
 30
0.0
 11
9.288138
 21
27.901153
 31
0.0
  0
ENDBLK
  5
2254
330
21C4
100
AcDbEntity
  8
0
100
AcDbBlockEnd
  0
BLOCK
  5
2273
330
2255
100
AcDbEntity
  8
0
100
AcDbBlockBegin
  2
*X9
 70
     1
 10
0.0
 20
0.0
 30
0.0
  3
*X9
  1

  0
LINE
  5
2256
330
2255
100
AcDbEntity
  8
0
  6
CONTINUOUS
 62
     0
100
AcDbLine
 10
20.403855
 20
20.63209399999998
 30
0.0
 11
20.470123
 21
20.69836099999998
 31
0.0
  0
LINE
  5
2257
330
2255
100
AcDbEntity
  8
0
  6
CONTINUOUS
 62
     0
100
AcDbLine
 10
20.121013
 20
20.63209399999998
 30
0.0
 11
20.470123
 21
20.981204
 31
0.0
  0
LINE
  5
2258
330
2255
100
AcDbEntity
  8
0
  6
CONTINUOUS
 62
     0
100
AcDbLine
 10
19.83817
 20
20.63209399999998
 30
0.0
 11
20.470123
 21
21.264047
 31
0.0
  0
LINE
  5
2259
330
2255
100
AcDbEntity
  8
0
  6
CONTINUOUS
 62
     0
100
AcDbLine
 10
19.555327
 20
20.63209399999998
 30
0.0
 11
20.470123
 21
21.546889
 31
0.0
  0
LINE
  5
225A
330
2255
100
AcDbEntity
  8
0
  6
CONTINUOUS
 62
     0
100
AcDbLine
 10
19.27248399999998
 20
20.63209399999998
 30
0.0
 11
20.470123
 21
21.829732
 31
0.0
  0
LINE
  5
225B
330
2255
100
AcDbEntity
  8
0
  6
CONTINUOUS
 62
     0
100
AcDbLine
 10
18.98964199999999
 20
20.63209399999998
 30
0.0
 11
20.470123
 21
22.11257499999998
 31
0.0
  0
LINE
  5
225C
330
2255
100
AcDbEntity
  8
0
  6
CONTINUOUS
 62
     0
100
AcDbLine
 10
18.706799
 20
20.63209399999998
 30
0.0
 11
20.470123
 21
22.395418
 31
0.0
  0
LINE
  5
225D
330
2255
100
AcDbEntity
  8
0
  6
CONTINUOUS
 62
     0
100
AcDbLine
 10
18.674623
 20
20.88276
 30
0.0
 11
20.470123
 21
22.67826
 31
0.0
  0
LINE
  5
225E
330
2255
100
AcDbEntity
  8
0
  6
CONTINUOUS
 62
     0
100
AcDbLine
 10
20.919864
 20
23.410844
 30
0.0
 11
21.087523
 21
23.578503
 31
0.0
  0
LINE
  5
225F
330
2255
100
AcDbEntity
  8
0
  6
CONTINUOUS
 62
     0
100
AcDbLine
 10
18.674623
 20
21.165603
 30
0.0
 11
20.470123
 21
22.961103
 31
0.0
  0
LINE
  5
2260
330
2255
100
AcDbEntity
  8
0
  6
CONTINUOUS
 62
     0
100
AcDbLine
 10
20.63702099999998
 20
23.410844
 30
0.0
 11
21.087523
 21
23.86134599999999
 31
0.0
  0
LINE
  5
2261
330
2255
100
AcDbEntity
  8
0
  6
CONTINUOUS
 62
     0
100
AcDbLine
 10
18.674623
 20
21.448446
 30
0.0
 11
20.470123
 21
23.24394599999999
 31
0.0
  0
LINE
  5
2262
330
2255
100
AcDbEntity
  8
0
  6
CONTINUOUS
 62
     0
100
AcDbLine
 10
18.674623
 20
21.731288
 30
0.0
 11
21.087523
 21
24.14418799999999
 31
0.0
  0
LINE
  5
2263
330
2255
100
AcDbEntity
  8
0
  6
CONTINUOUS
 62
     0
100
AcDbLine
 10
18.674623
 20
22.01413099999999
 30
0.0
 11
21.087523
 21
24.427031
 31
0.0
  0
LINE
  5
2264
330
2255
100
AcDbEntity
  8
0
  6
CONTINUOUS
 62
     0
100
AcDbLine
 10
18.674623
 20
22.296974
 30
0.0
 11
20.886043
 21
24.508394
 31
0.0
  0
LINE
  5
2265
330
2255
100
AcDbEntity
  8
0
  6
CONTINUOUS
 62
     0
100
AcDbLine
 10
21.02665
 20
24.931844
 30
0.0
 11
21.087523
 21
24.992717
 31
0.0
  0
LINE
  5
2266
330
2255
100
AcDbEntity
  8
0
  6
CONTINUOUS
 62
     0
100
AcDbLine
 10
18.674623
 20
22.579817
 30
0.0
 11
20.6032
 21
24.508394
 31
0.0
  0
LINE
  5
2267
330
2255
100
AcDbEntity
  8
0
  6
CONTINUOUS
 62
     0
100
AcDbLine
 10
20.743807
 20
24.931844
 30
0.0
 11
21.087523
 21
25.275559
 31
0.0
  0
LINE
  5
2268
330
2255
100
AcDbEntity
  8
0
  6
CONTINUOUS
 62
     0
100
AcDbLine
 10
18.674623
 20
22.862659
 30
0.0
 11
20.43397699999998
 21
24.622013
 31
0.0
  0
LINE
  5
2269
330
2255
100
AcDbEntity
  8
0
  6
CONTINUOUS
 62
     0
100
AcDbLine
 10
18.674623
 20
23.145502
 30
0.0
 11
21.087523
 21
25.558402
 31
0.0
  0
LINE
  5
226A
330
2255
100
AcDbEntity
  8
0
  6
CONTINUOUS
 62
     0
100
AcDbLine
 10
18.657122
 20
23.410844
 30
0.0
 11
21.08127199999997
 21
25.834994
 31
0.0
  0
LINE
  5
226B
330
2255
100
AcDbEntity
  8
0
  6
CONTINUOUS
 62
     0
100
AcDbLine
 10
18.374279
 20
23.410844
 30
0.0
 11
20.798429
 21
25.834994
 31
0.0
  0
LINE
  5
226C
330
2255
100
AcDbEntity
  8
0
  6
CONTINUOUS
 62
     0
100
AcDbLine
 10
18.137323
 20
23.45673
 30
0.0
 11
20.51558599999999
 21
25.834994
 31
0.0
  0
LINE
  5
226D
330
2255
100
AcDbEntity
  8
0
  6
CONTINUOUS
 62
     0
100
AcDbLine
 10
18.137323
 20
23.739573
 30
0.0
 11
20.232744
 21
25.834994
 31
0.0
  0
LINE
  5
226E
330
2255
100
AcDbEntity
  8
0
  6
CONTINUOUS
 62
     0
100
AcDbLine
 10
18.674623
 20
24.559716
 30
0.0
 11
19.949901
 21
25.834994
 31
0.0
  0
LINE
  5
226F
330
2255
100
AcDbEntity
  8
0
  6
CONTINUOUS
 62
     0
100
AcDbLine
 10
18.137323
 20
24.02241599999999
 30
0.0
 11
18.623301
 21
24.508394
 31
0.0
  0
LINE
  5
2270
330
2255
100
AcDbEntity
  8
0
  6
CONTINUOUS
 62
     0
100
AcDbLine
 10
18.674623
 20
24.842558
 30
0.0
 11
19.66705799999997
 21
25.834994
 31
0.0
  0
LINE
  5
2271
330
2255
100
AcDbEntity
  8
0
  6
CONTINUOUS
 62
     0
100
AcDbLine
 10
18.137323
 20
24.30525799999999
 30
0.0
 11
18.34045799999998
 21
24.508394
 31
0.0
  0
LINE
  5
2272
330
2255
100
AcDbEntity
  8
0
  6
CONTINUOUS
 62
     0
100
AcDbLine
 10
18.70280499999998
 20
25.15358299999999
 30
0.0
 11
19.356077
 21
25.80685499999999
 31
0.0
  0
ENDBLK
  5
2274
330
2255
100
AcDbEntity
  8
0
100
AcDbBlockEnd
  0
BLOCK
  5
22A2
330
2275
100
AcDbEntity
  8
0
100
AcDbBlockBegin
  2
*X10
 70
     1
 10
0.0
 20
0.0
 30
0.0
  3
*X10
  1

  0
LINE
  5
2276
330
2275
100
AcDbEntity
  8
0
  6
CONTINUOUS
 62
     0
100
AcDbLine
 10
35.94895499999999
 20
20.620844
 30
0.0
 11
35.986573
 21
20.658462
 31
0.0
  0
LINE
  5
2277
330
2275
100
AcDbEntity
  8
0
  6
CONTINUOUS
 62
     0
100
AcDbLine
 10
35.666112
 20
20.620844
 30
0.0
 11
35.986573
 21
20.94130499999999
 31
0.0
  0
LINE
  5
2278
330
2275
100
AcDbEntity
  8
0
  6
CONTINUOUS
 62
     0
100
AcDbLine
 10
35.38326899999999
 20
20.620844
 30
0.0
 11
35.986573
 21
21.22414699999997
 31
0.0
  0
LINE
  5
2279
330
2275
100
AcDbEntity
  8
0
  6
CONTINUOUS
 62
     0
100
AcDbLine
 10
35.100427
 20
20.620844
 30
0.0
 11
35.986573
 21
21.50698999999999
 31
0.0
  0
LINE
  5
227A
330
2275
100
AcDbEntity
  8
0
  6
CONTINUOUS
 62
     0
100
AcDbLine
 10
34.817584
 20
20.620844
 30
0.0
 11
35.986573
 21
21.789833
 31
0.0
  0
LINE
  5
227B
330
2275
100
AcDbEntity
  8
0
  6
CONTINUOUS
 62
     0
100
AcDbLine
 10
34.53474099999999
 20
20.620844
 30
0.0
 11
35.986573
 21
22.07267499999999
 31
0.0
  0
LINE
  5
227C
330
2275
100
AcDbEntity
  8
0
  6
CONTINUOUS
 62
     0
100
AcDbLine
 10
34.251898
 20
20.620844
 30
0.0
 11
35.986573
 21
22.355518
 31
0.0
  0
LINE
  5
227D
330
2275
100
AcDbEntity
  8
0
  6
CONTINUOUS
 62
     0
100
AcDbLine
 10
34.19152299999999
 20
20.84331099999999
 30
0.0
 11
35.986573
 21
22.638361
 31
0.0
  0
LINE
  5
227E
330
2275
100
AcDbEntity
  8
0
  6
CONTINUOUS
 62
     0
100
AcDbLine
 10
33.76930999999999
 20
20.703941
 30
0.0
 11
35.986573
 21
22.92120399999999
 31
0.0
  0
LINE
  5
227F
330
2275
100
AcDbEntity
  8
0
  6
CONTINUOUS
 62
     0
100
AcDbLine
 10
33.39236599999999
 20
20.60983999999999
 30
0.0
 11
35.986573
 21
23.20404599999999
 31
0.0
  0
LINE
  5
2280
330
2275
100
AcDbEntity
  8
0
  6
CONTINUOUS
 62
     0
100
AcDbLine
 10
33.081013
 20
20.58132999999997
 30
0.0
 11
35.986573
 21
23.486889
 31
0.0
  0
LINE
  5
2281
330
2275
100
AcDbEntity
  8
0
  6
CONTINUOUS
 62
     0
100
AcDbLine
 10
32.78812199999999
 20
20.57128099999999
 30
0.0
 11
35.986573
 21
23.769732
 31
0.0
  0
LINE
  5
2282
330
2275
100
AcDbEntity
  8
0
  6
CONTINUOUS
 62
     0
100
AcDbLine
 10
32.50752399999999
 20
20.57352499999999
 30
0.0
 11
35.986573
 21
24.05257399999999
 31
0.0
  0
LINE
  5
2283
330
2275
100
AcDbEntity
  8
0
  6
CONTINUOUS
 62
     0
100
AcDbLine
 10
34.178814
 20
22.52765899999999
 30
0.0
 11
35.986573
 21
24.335417
 31
0.0
  0
LINE
  5
2284
330
2275
100
AcDbEntity
  8
0
  6
CONTINUOUS
 62
     0
100
AcDbLine
 10
32.243083
 20
20.59192799999999
 30
0.0
 11
33.59479199999999
 21
21.94363599999999
 31
0.0
  0
LINE
  5
2285
330
2275
100
AcDbEntity
  8
0
  6
CONTINUOUS
 62
     0
100
AcDbLine
 10
34.181643
 20
22.81333
 30
0.0
 11
35.986573
 21
24.61826
 31
0.0
  0
LINE
  5
2286
330
2275
100
AcDbEntity
  8
0
  6
CONTINUOUS
 62
     0
100
AcDbLine
 10
32.000516
 20
20.632203
 30
0.0
 11
33.247555
 21
21.879242
 31
0.0
  0
LINE
  5
2287
330
2275
100
AcDbEntity
  8
0
  6
CONTINUOUS
 62
     0
100
AcDbLine
 10
34.100287
 20
23.014817
 30
0.0
 11
35.986573
 21
24.90110299999999
 31
0.0
  0
LINE
  5
2288
330
2275
100
AcDbEntity
  8
0
  6
CONTINUOUS
 62
     0
100
AcDbLine
 10
31.777522
 20
20.692051
 30
0.0
 11
32.988078
 21
21.90260799999999
 31
0.0
  0
LINE
  5
2289
330
2275
100
AcDbEntity
  8
0
  6
CONTINUOUS
 62
     0
100
AcDbLine
 10
33.96946099999999
 20
23.166833
 30
0.0
 11
35.986573
 21
25.183945
 31
0.0
  0
LINE
  5
228A
330
2275
100
AcDbEntity
  8
0
  6
CONTINUOUS
 62
     0
100
AcDbLine
 10
31.57735699999999
 20
20.774729
 30
0.0
 11
32.76916099999999
 21
21.96653299999999
 31
0.0
  0
LINE
  5
228B
330
2275
100
AcDbEntity
  8
0
  6
CONTINUOUS
 62
     0
100
AcDbLine
 10
33.798691
 20
23.27890599999999
 30
0.0
 11
35.986573
 21
25.466788
 31
0.0
  0
LINE
  5
228C
330
2275
100
AcDbEntity
  8
0
  6
CONTINUOUS
 62
     0
100
AcDbLine
 10
31.394628
 20
20.87484299999998
 30
0.0
 11
32.578781
 21
22.05899599999999
 31
0.0
  0
LINE
  5
228D
330
2275
100
AcDbEntity
  8
0
  6
CONTINUOUS
 62
     0
100
AcDbLine
 10
33.595067
 20
23.358124
 30
0.0
 11
35.986573
 21
25.749631
 31
0.0
  0
LINE
  5
228E
330
2275
100
AcDbEntity
  8
0
  6
CONTINUOUS
 62
     0
100
AcDbLine
 10
31.22313099999999
 20
20.986189
 30
0.0
 11
32.424733
 21
22.187791
 31
0.0
  0
LINE
  5
228F
330
2275
100
AcDbEntity
  8
0
  6
CONTINUOUS
 62
     0
100
AcDbLine
 10
33.37303699999999
 20
23.41893699999999
 30
0.0
 11
35.77784299999999
 21
25.823744
 31
0.0
  0
LINE
  5
2290
330
2275
100
AcDbEntity
  8
0
  6
CONTINUOUS
 62
     0
100
AcDbLine
 10
31.067037
 20
21.112937
 30
0.0
 11
32.307803
 21
22.353704
 31
0.0
  0
LINE
  5
2291
330
2275
100
AcDbEntity
  8
0
  6
CONTINUOUS
 62
     0
100
AcDbLine
 10
33.11599499999999
 20
23.444738
 30
0.0
 11
34.077945
 21
24.406688
 31
0.0
  0
LINE
  5
2292
330
2275
100
AcDbEntity
  8
0
  6
CONTINUOUS
 62
     0
100
AcDbLine
 10
34.19152299999999
 20
24.52026599999999
 30
0.0
 11
35.495
 21
25.823744
 31
0.0
  0
LINE
  5
2293
330
2275
100
AcDbEntity
  8
0
  6
CONTINUOUS
 62
     0
100
AcDbLine
 10
30.92289099999999
 20
21.25163399999999
 30
0.0
 11
32.23358499999999
 21
22.562329
 31
0.0
  0
LINE
  5
2294
330
2275
100
AcDbEntity
  8
0
  6
CONTINUOUS
 62
     0
100
AcDbLine
 10
32.74817399999999
 20
23.35976
 30
0.0
 11
33.885911
 21
24.49749699999999
 31
0.0
  0
LINE
  5
2295
330
2275
100
AcDbEntity
  8
0
  6
CONTINUOUS
 62
     0
100
AcDbLine
 10
34.19152299999999
 20
24.803109
 30
0.0
 11
35.212158
 21
25.823744
 31
0.0
  0
LINE
  5
2296
330
2275
100
AcDbEntity
  8
0
  6
CONTINUOUS
 62
     0
100
AcDbLine
 10
30.79573599999999
 20
21.40732199999998
 30
0.0
 11
32.26604099999998
 21
22.877627
 31
0.0
  0
LINE
  5
2297
330
2275
100
AcDbEntity
  8
0
  6
CONTINUOUS
 62
     0
100
AcDbLine
 10
34.19152299999999
 20
25.085952
 30
0.0
 11
34.929315
 21
25.823744
 31
0.0
  0
LINE
  5
2298
330
2275
100
AcDbEntity
  8
0
  6
CONTINUOUS
 62
     0
100
AcDbLine
 10
30.684862
 20
21.579291
 30
0.0
 11
33.65907999999999
 21
24.553509
 31
0.0
  0
LINE
  5
2299
330
2275
100
AcDbEntity
  8
0
  6
CONTINUOUS
 62
     0
100
AcDbLine
 10
34.19152299999999
 20
25.368794
 30
0.0
 11
34.64647199999999
 21
25.823744
 31
0.0
  0
LINE
  5
229A
330
2275
100
AcDbEntity
  8
0
  6
CONTINUOUS
 62
     0
100
AcDbLine
 10
30.59117899999999
 20
21.76845
 30
0.0
 11
33.418127
 21
24.595399
 31
0.0
  0
LINE
  5
229B
330
2275
100
AcDbEntity
  8
0
  6
CONTINUOUS
 62
     0
100
AcDbLine
 10
34.19152299999999
 20
25.651637
 30
0.0
 11
34.36362899999998
 21
25.823744
 31
0.0
  0
LINE
  5
229C
330
2275
100
AcDbEntity
  8
0
  6
CONTINUOUS
 62
     0
100
AcDbLine
 10
30.51714
 20
21.977254
 30
0.0
 11
33.172249
 21
24.632364
 31
0.0
  0
LINE
  5
229D
330
2275
100
AcDbEntity
  8
0
  6
CONTINUOUS
 62
     0
100
AcDbLine
 10
30.459126
 20
22.20208299999999
 30
0.0
 11
32.905926
 21
24.648883
 31
0.0
  0
LINE
  5
229E
330
2275
100
AcDbEntity
  8
0
  6
CONTINUOUS
 62
     0
100
AcDbLine
 10
30.423694
 20
22.449493
 30
0.0
 11
32.62147499999999
 21
24.647275
 31
0.0
  0
LINE
  5
229F
330
2275
100
AcDbEntity
  8
0
  6
CONTINUOUS
 62
     0
100
AcDbLine
 10
30.424318
 20
22.732961
 30
0.0
 11
32.321114
 21
24.629756
 31
0.0
  0
LINE
  5
22A0
330
2275
100
AcDbEntity
  8
0
  6
CONTINUOUS
 62
     0
100
AcDbLine
 10
30.48455999999999
 20
23.076045
 30
0.0
 11
31.97893099999999
 21
24.570416
 31
0.0
  0
LINE
  5
22A1
330
2275
100
AcDbEntity
  8
0
  6
CONTINUOUS
 62
     0
100
AcDbLine
 10
30.667096
 20
23.541423
 30
0.0
 11
31.51624099999999
 21
24.390569
 31
0.0
  0
ENDBLK
  5
22A3
330
2275
100
AcDbEntity
  8
0
100
AcDbBlockEnd
  0
BLOCK
  5
22CC
330
22A4
100
AcDbEntity
  8
0
100
AcDbBlockBegin
  2
*X11
 70
     1
 10
0.0
 20
0.0
 30
0.0
  3
*X11
  1

  0
LINE
  5
22A5
330
22A4
100
AcDbEntity
  8
0
  6
CONTINUOUS
 62
     0
100
AcDbLine
 10
29.737665
 20
20.63209399999998
 30
0.0
 11
29.89222299999999
 21
20.786652
 31
0.0
  0
LINE
  5
22A6
330
22A4
100
AcDbEntity
  8
0
  6
CONTINUOUS
 62
     0
100
AcDbLine
 10
29.45482199999998
 20
20.63209399999998
 30
0.0
 11
29.89222299999999
 21
21.06949399999999
 31
0.0
  0
LINE
  5
22A7
330
22A4
100
AcDbEntity
  8
0
  6
CONTINUOUS
 62
     0
100
AcDbLine
 10
29.17197899999999
 20
20.63209399999998
 30
0.0
 11
29.89222299999999
 21
21.352337
 31
0.0
  0
LINE
  5
22A8
330
22A4
100
AcDbEntity
  8
0
  6
CONTINUOUS
 62
     0
100
AcDbLine
 10
28.88913699999999
 20
20.63209399999998
 30
0.0
 11
29.89222299999999
 21
21.63517999999999
 31
0.0
  0
LINE
  5
22A9
330
22A4
100
AcDbEntity
  8
0
  6
CONTINUOUS
 62
     0
100
AcDbLine
 10
28.606294
 20
20.63209399999998
 30
0.0
 11
29.89222299999999
 21
21.918023
 31
0.0
  0
LINE
  5
22AA
330
22A4
100
AcDbEntity
  8
0
  6
CONTINUOUS
 62
     0
100
AcDbLine
 10
28.323451
 20
20.63209399999998
 30
0.0
 11
29.89222299999999
 21
22.200865
 31
0.0
  0
LINE
  5
22AB
330
22A4
100
AcDbEntity
  8
0
  6
CONTINUOUS
 62
     0
100
AcDbLine
 10
28.108423
 20
20.69990799999998
 30
0.0
 11
29.89222299999999
 21
22.483708
 31
0.0
  0
LINE
  5
22AC
330
22A4
100
AcDbEntity
  8
0
  6
CONTINUOUS
 62
     0
100
AcDbLine
 10
28.108423
 20
20.98275099999999
 30
0.0
 11
29.89222299999999
 21
22.766551
 31
0.0
  0
LINE
  5
22AD
330
22A4
100
AcDbEntity
  8
0
  6
CONTINUOUS
 62
     0
100
AcDbLine
 10
28.108423
 20
21.26559299999998
 30
0.0
 11
29.89222299999999
 21
23.049393
 31
0.0
  0
LINE
  5
22AE
330
22A4
100
AcDbEntity
  8
0
  6
CONTINUOUS
 62
     0
100
AcDbLine
 10
28.108423
 20
21.54843599999999
 30
0.0
 11
29.89184299999999
 21
23.33185599999999
 31
0.0
  0
LINE
  5
22AF
330
22A4
100
AcDbEntity
  8
0
  6
CONTINUOUS
 62
     0
100
AcDbLine
 10
28.108423
 20
21.831279
 30
0.0
 11
29.853268
 21
23.576124
 31
0.0
  0
LINE
  5
22B0
330
22A4
100
AcDbEntity
  8
0
  6
CONTINUOUS
 62
     0
100
AcDbLine
 10
28.108423
 20
22.114122
 30
0.0
 11
29.777815
 21
23.78351299999999
 31
0.0
  0
LINE
  5
22B1
330
22A4
100
AcDbEntity
  8
0
  6
CONTINUOUS
 62
     0
100
AcDbLine
 10
28.108423
 20
22.396964
 30
0.0
 11
29.67413
 21
23.962671
 31
0.0
  0
LINE
  5
22B2
330
22A4
100
AcDbEntity
  8
0
  6
CONTINUOUS
 62
     0
100
AcDbLine
 10
28.084087
 20
22.655471
 30
0.0
 11
29.54593
 21
24.117314
 31
0.0
  0
LINE
  5
22B3
330
22A4
100
AcDbEntity
  8
0
  6
CONTINUOUS
 62
     0
100
AcDbLine
 10
26.06071
 20
20.63209399999998
 30
0.0
 11
26.28997299999999
 21
20.861357
 31
0.0
  0
LINE
  5
22B4
330
22A4
100
AcDbEntity
  8
0
  6
CONTINUOUS
 62
     0
100
AcDbLine
 10
27.9938
 20
22.84802699999999
 30
0.0
 11
29.394359
 21
24.248585
 31
0.0
  0
LINE
  5
22B5
330
22A4
100
AcDbEntity
  8
0
  6
CONTINUOUS
 62
     0
100
AcDbLine
 10
25.777867
 20
20.63209399999998
 30
0.0
 11
26.28997299999999
 21
21.1442
 31
0.0
  0
LINE
  5
22B6
330
22A4
100
AcDbEntity
  8
0
  6
CONTINUOUS
 62
     0
100
AcDbLine
 10
27.856431
 20
22.993501
 30
0.0
 11
29.218545
 21
24.355614
 31
0.0
  0
LINE
  5
22B7
330
22A4
100
AcDbEntity
  8
0
  6
CONTINUOUS
 62
     0
100
AcDbLine
 10
25.495024
 20
20.63209399999998
 30
0.0
 11
26.28997299999999
 21
21.427042
 31
0.0
  0
LINE
  5
22B8
330
22A4
100
AcDbEntity
  8
0
  6
CONTINUOUS
 62
     0
100
AcDbLine
 10
27.673361
 20
23.09327399999999
 30
0.0
 11
29.008732
 21
24.428645
 31
0.0
  0
LINE
  5
22B9
330
22A4
100
AcDbEntity
  8
0
  6
CONTINUOUS
 62
     0
100
AcDbLine
 10
25.212181
 20
20.63209399999998
 30
0.0
 11
26.28997299999999
 21
21.70988499999999
 31
0.0
  0
LINE
  5
22BA
330
22A4
100
AcDbEntity
  8
0
  6
CONTINUOUS
 62
     0
100
AcDbLine
 10
27.426682
 20
23.129436
 30
0.0
 11
28.78111099999999
 21
24.483866
 31
0.0
  0
LINE
  5
22BB
330
22A4
100
AcDbEntity
  8
0
  6
CONTINUOUS
 62
     0
100
AcDbLine
 10
24.929339
 20
20.63209399999998
 30
0.0
 11
26.28997299999999
 21
21.992728
 31
0.0
  0
LINE
  5
22BC
330
22A4
100
AcDbEntity
  8
0
  6
CONTINUOUS
 62
     0
100
AcDbLine
 10
27.09337899999999
 20
23.07897599999999
 30
0.0
 11
28.539658
 21
24.525255
 31
0.0
  0
LINE
  5
22BD
330
22A4
100
AcDbEntity
  8
0
  6
CONTINUOUS
 62
     0
100
AcDbLine
 10
24.64649599999999
 20
20.63209399999998
 30
0.0
 11
26.28997299999999
 21
22.27557099999999
 31
0.0
  0
LINE
  5
22BE
330
22A4
100
AcDbEntity
  8
0
  6
CONTINUOUS
 62
     0
100
AcDbLine
 10
24.494923
 20
20.763363
 30
0.0
 11
28.28214099999999
 21
24.550582
 31
0.0
  0
LINE
  5
22BF
330
22A4
100
AcDbEntity
  8
0
  6
CONTINUOUS
 62
     0
100
AcDbLine
 10
24.494923
 20
21.046206
 30
0.0
 11
28.005321
 21
24.556604
 31
0.0
  0
LINE
  5
22C0
330
22A4
100
AcDbEntity
  8
0
  6
CONTINUOUS
 62
     0
100
AcDbLine
 10
24.494923
 20
21.32904899999997
 30
0.0
 11
27.704195
 21
24.538321
 31
0.0
  0
LINE
  5
22C1
330
22A4
100
AcDbEntity
  8
0
  6
CONTINUOUS
 62
     0
100
AcDbLine
 10
24.494923
 20
21.611891
 30
0.0
 11
27.370303
 21
24.487272
 31
0.0
  0
LINE
  5
22C2
330
22A4
100
AcDbEntity
  8
0
  6
CONTINUOUS
 62
     0
100
AcDbLine
 10
24.494923
 20
21.894734
 30
0.0
 11
26.987035
 21
24.386846
 31
0.0
  0
LINE
  5
22C3
330
22A4
100
AcDbEntity
  8
0
  6
CONTINUOUS
 62
     0
100
AcDbLine
 10
24.494923
 20
22.17757699999999
 30
0.0
 11
26.51056599999999
 21
24.19322
 31
0.0
  0
LINE
  5
22C4
330
22A4
100
AcDbEntity
  8
0
  6
CONTINUOUS
 62
     0
100
AcDbLine
 10
24.494923
 20
22.46042
 30
0.0
 11
26.28997299999999
 21
24.25547
 31
0.0
  0
LINE
  5
22C5
330
22A4
100
AcDbEntity
  8
0
  6
CONTINUOUS
 62
     0
100
AcDbLine
 10
24.494923
 20
22.74326199999999
 30
0.0
 11
26.26005399999999
 21
24.508394
 31
0.0
  0
LINE
  5
22C6
330
22A4
100
AcDbEntity
  8
0
  6
CONTINUOUS
 62
     0
100
AcDbLine
 10
24.494923
 20
23.02610499999999
 30
0.0
 11
25.977212
 21
24.508394
 31
0.0
  0
LINE
  5
22C7
330
22A4
100
AcDbEntity
  8
0
  6
CONTINUOUS
 62
     0
100
AcDbLine
 10
24.494923
 20
23.308948
 30
0.0
 11
25.694369
 21
24.508394
 31
0.0
  0
LINE
  5
22C8
330
22A4
100
AcDbEntity
  8
0
  6
CONTINUOUS
 62
     0
100
AcDbLine
 10
24.494923
 20
23.59179
 30
0.0
 11
25.411526
 21
24.508394
 31
0.0
  0
LINE
  5
22C9
330
22A4
100
AcDbEntity
  8
0
  6
CONTINUOUS
 62
     0
100
AcDbLine
 10
24.494923
 20
23.87463299999999
 30
0.0
 11
25.128683
 21
24.508394
 31
0.0
  0
LINE
  5
22CA
330
22A4
100
AcDbEntity
  8
0
  6
CONTINUOUS
 62
     0
100
AcDbLine
 10
24.494923
 20
24.157476
 30
0.0
 11
24.845841
 21
24.508394
 31
0.0
  0
LINE
  5
22CB
330
22A4
100
AcDbEntity
  8
0
  6
CONTINUOUS
 62
     0
100
AcDbLine
 10
24.494923
 20
24.440319
 30
0.0
 11
24.562998
 21
24.508394
 31
0.0
  0
ENDBLK
  5
22CD
330
22A4
100
AcDbEntity
  8
0
100
AcDbBlockEnd
  0
BLOCK
  5
22EF
330
22CE
100
AcDbEntity
  8
0
100
AcDbBlockBegin
  2
*X12
 70
     1
 10
0.0
 20
0.0
 30
0.0
  3
*X12
  1

  0
LINE
  5
22CF
330
22CE
100
AcDbEntity
  8
0
  6
CONTINUOUS
 62
     0
100
AcDbLine
 10
47.249714
 20
22.58779399999999
 30
0.0
 11
47.287957
 21
22.62603599999999
 31
0.0
  0
LINE
  5
22D0
330
22CE
100
AcDbEntity
  8
0
  6
CONTINUOUS
 62
     0
100
AcDbLine
 10
46.96687199999998
 20
22.58779399999999
 30
0.0
 11
47.307662
 21
22.928584
 31
0.0
  0
LINE
  5
22D1
330
22CE
100
AcDbEntity
  8
0
  6
CONTINUOUS
 62
     0
100
AcDbLine
 10
46.68402899999999
 20
22.58779399999999
 30
0.0
 11
47.29611499999999
 21
23.19987999999999
 31
0.0
  0
LINE
  5
22D2
330
22CE
100
AcDbEntity
  8
0
  6
CONTINUOUS
 62
     0
100
AcDbLine
 10
46.401186
 20
22.58779399999999
 30
0.0
 11
47.261533
 21
23.448141
 31
0.0
  0
LINE
  5
22D3
330
22CE
100
AcDbEntity
  8
0
  6
CONTINUOUS
 62
     0
100
AcDbLine
 10
44.445486
 20
20.63209399999998
 30
0.0
 11
44.459623
 21
20.64623
 31
0.0
  0
LINE
  5
22D4
330
22CE
100
AcDbEntity
  8
0
  6
CONTINUOUS
 62
     0
100
AcDbLine
 10
46.11834299999999
 20
22.58779399999999
 30
0.0
 11
47.209214
 21
23.67866499999999
 31
0.0
  0
LINE
  5
22D5
330
22CE
100
AcDbEntity
  8
0
  6
CONTINUOUS
 62
     0
100
AcDbLine
 10
44.162643
 20
20.63209399999998
 30
0.0
 11
44.459623
 21
20.929073
 31
0.0
  0
LINE
  5
22D6
330
22CE
100
AcDbEntity
  8
0
  6
CONTINUOUS
 62
     0
100
AcDbLine
 10
45.835501
 20
22.58779399999999
 30
0.0
 11
47.132011
 21
23.884304
 31
0.0
  0
LINE
  5
22D7
330
22CE
100
AcDbEntity
  8
0
  6
CONTINUOUS
 62
     0
100
AcDbLine
 10
43.879801
 20
20.63209399999998
 30
0.0
 11
44.459623
 21
21.21191599999999
 31
0.0
  0
LINE
  5
22D8
330
22CE
100
AcDbEntity
  8
0
  6
CONTINUOUS
 62
     0
100
AcDbLine
 10
45.55265799999999
 20
22.58779399999999
 30
0.0
 11
47.02930300000001
 21
24.06443799999999
 31
0.0
  0
LINE
  5
22D9
330
22CE
100
AcDbEntity
  8
0
  6
CONTINUOUS
 62
     0
100
AcDbLine
 10
43.59695799999999
 20
20.63209399999998
 30
0.0
 11
44.459623
 21
21.494759
 31
0.0
  0
LINE
  5
22DA
330
22CE
100
AcDbEntity
  8
0
  6
CONTINUOUS
 62
     0
100
AcDbLine
 10
45.45457299999998
 20
22.772551
 30
0.0
 11
46.900895
 21
24.218874
 31
0.0
  0
LINE
  5
22DB
330
22CE
100
AcDbEntity
  8
0
  6
CONTINUOUS
 62
     0
100
AcDbLine
 10
43.314115
 20
20.63209399999998
 30
0.0
 11
44.459623
 21
21.77760099999999
 31
0.0
  0
LINE
  5
22DC
330
22CE
100
AcDbEntity
  8
0
  6
CONTINUOUS
 62
     0
100
AcDbLine
 10
45.418199
 20
23.01902
 30
0.0
 11
46.74470999999999
 21
24.345531
 31
0.0
  0
LINE
  5
22DD
330
22CE
100
AcDbEntity
  8
0
  6
CONTINUOUS
 62
     0
100
AcDbLine
 10
43.03127299999998
 20
20.63209399999998
 30
0.0
 11
44.459623
 21
22.060444
 31
0.0
  0
LINE
  5
22DE
330
22CE
100
AcDbEntity
  8
0
  6
CONTINUOUS
 62
     0
100
AcDbLine
 10
45.294614
 20
23.17827799999999
 30
0.0
 11
46.558784
 21
24.442448
 31
0.0
  0
LINE
  5
22DF
330
22CE
100
AcDbEntity
  8
0
  6
CONTINUOUS
 62
     0
100
AcDbLine
 10
42.74842999999999
 20
20.63209399999998
 30
0.0
 11
44.459623
 21
22.343287
 31
0.0
  0
LINE
  5
22E0
330
22CE
100
AcDbEntity
  8
0
  6
CONTINUOUS
 62
     0
100
AcDbLine
 10
45.10254699999999
 20
23.26905299999999
 30
0.0
 11
46.34635699999999
 21
24.512863
 31
0.0
  0
LINE
  5
22E1
330
22CE
100
AcDbEntity
  8
0
  6
CONTINUOUS
 62
     0
100
AcDbLine
 10
42.732973
 20
20.89947899999998
 30
0.0
 11
44.459623
 21
22.626129
 31
0.0
  0
LINE
  5
22E2
330
22CE
100
AcDbEntity
  8
0
  6
CONTINUOUS
 62
     0
100
AcDbLine
 10
44.79762199999998
 20
23.24697099999999
 30
0.0
 11
46.11516599999998
 21
24.564515
 31
0.0
  0
LINE
  5
22E3
330
22CE
100
AcDbEntity
  8
0
  6
CONTINUOUS
 62
     0
100
AcDbLine
 10
42.732973
 20
21.182322
 30
0.0
 11
44.492506
 21
22.941855
 31
0.0
  0
LINE
  5
22E4
330
22CE
100
AcDbEntity
  8
0
  6
CONTINUOUS
 62
     0
100
AcDbLine
 10
42.732973
 20
21.465165
 30
0.0
 11
45.85771499999999
 21
24.58990599999999
 31
0.0
  0
LINE
  5
22E5
330
22CE
100
AcDbEntity
  8
0
  6
CONTINUOUS
 62
     0
100
AcDbLine
 10
42.732973
 20
21.74800799999999
 30
0.0
 11
45.563093
 21
24.57812699999999
 31
0.0
  0
LINE
  5
22E6
330
22CE
100
AcDbEntity
  8
0
  6
CONTINUOUS
 62
     0
100
AcDbLine
 10
42.732973
 20
22.03085
 30
0.0
 11
45.22227700000001
 21
24.52015499999999
 31
0.0
  0
LINE
  5
22E7
330
22CE
100
AcDbEntity
  8
0
  6
CONTINUOUS
 62
     0
100
AcDbLine
 10
42.732973
 20
22.313693
 30
0.0
 11
44.777089
 21
24.357809
 31
0.0
  0
LINE
  5
22E8
330
22CE
100
AcDbEntity
  8
0
  6
CONTINUOUS
 62
     0
100
AcDbLine
 10
42.732973
 20
22.59653599999999
 30
0.0
 11
44.459623
 21
24.323186
 31
0.0
  0
LINE
  5
22E9
330
22CE
100
AcDbEntity
  8
0
  6
CONTINUOUS
 62
     0
100
AcDbLine
 10
42.732973
 20
22.87937799999999
 30
0.0
 11
44.361988
 21
24.508394
 31
0.0
  0
LINE
  5
22EA
330
22CE
100
AcDbEntity
  8
0
  6
CONTINUOUS
 62
     0
100
AcDbLine
 10
42.732973
 20
23.162221
 30
0.0
 11
44.079145
 21
24.508394
 31
0.0
  0
LINE
  5
22EB
330
22CE
100
AcDbEntity
  8
0
  6
CONTINUOUS
 62
     0
100
AcDbLine
 10
42.732973
 20
23.445064
 30
0.0
 11
43.796303
 21
24.508394
 31
0.0
  0
LINE
  5
22EC
330
22CE
100
AcDbEntity
  8
0
  6
CONTINUOUS
 62
     0
100
AcDbLine
 10
42.732973
 20
23.727907
 30
0.0
 11
43.51345999999998
 21
24.508394
 31
0.0
  0
LINE
  5
22ED
330
22CE
100
AcDbEntity
  8
0
  6
CONTINUOUS
 62
     0
100
AcDbLine
 10
42.732973
 20
24.010749
 30
0.0
 11
43.23061699999999
 21
24.508394
 31
0.0
  0
LINE
  5
22EE
330
22CE
100
AcDbEntity
  8
0
  6
CONTINUOUS
 62
     0
100
AcDbLine
 10
42.732973
 20
24.293592
 30
0.0
 11
42.947775
 21
24.508394
 31
0.0
  0
ENDBLK
  5
22F0
330
22CE
100
AcDbEntity
  8
0
100
AcDbBlockEnd
  0
BLOCK
  5
2319
330
2309
100
AcDbEntity
  8
0
100
AcDbBlockBegin
  2
*D13
 70
     1
 10
0.0
 20
0.0
 30
0.0
  3
*D13
  1

  0
LINE
  5
230A
330
2309
100
AcDbEntity
  8
1
  6
CONTINUOUS
 62
     3
100
AcDbLine
 10
136.629
 20
83.506
 30
0.0
 11
140.077
 21
83.506
 31
0.0
  0
LINE
  5
230B
330
2309
100
AcDbEntity
  8
1
  6
CONTINUOUS
 62
     2
100
AcDbLine
 10
139.4099999999999
 20
83.506
 30
0.0
 11
138.96
 21
86.006
 31
0.0
  0
LINE
  5
230C
330
2309
100
AcDbEntity
  8
1
  6
CONTINUOUS
 62
     2
100
AcDbLine
 10
138.96
 20
86.006
 30
0.0
 11
139.86
 21
86.006
 31
0.0
  0
LINE
  5
230D
330
2309
100
AcDbEntity
  8
1
  6
CONTINUOUS
 62
     2
100
AcDbLine
 10
139.86
 20
86.006
 30
0.0
 11
139.4099999999999
 21
83.506
 31
0.0
  0
LINE
  5
230E
330
2309
100
AcDbEntity
  8
1
  6
CONTINUOUS
 62
     2
100
AcDbLine
 10
139.4099999999999
 20
78.506
 30
0.0
 11
139.86
 21
76.006
 31
0.0
  0
LINE
  5
230F
330
2309
100
AcDbEntity
  8
1
  6
CONTINUOUS
 62
     2
100
AcDbLine
 10
139.86
 20
76.006
 30
0.0
 11
138.96
 21
76.006
 31
0.0
  0
LINE
  5
2310
330
2309
100
AcDbEntity
  8
1
  6
CONTINUOUS
 62
     2
100
AcDbLine
 10
138.96
 20
76.006
 30
0.0
 11
139.4099999999999
 21
78.506
 31
0.0
  0
LINE
  5
2311
330
2309
100
AcDbEntity
  8
1
  6
CONTINUOUS
 62
     3
100
AcDbLine
 10
139.4099999999999
 20
87.256
 30
0.0
 11
139.4099999999999
 21
83.506
 31
0.0
  0
LINE
  5
2312
330
2309
100
AcDbEntity
  8
1
  6
CONTINUOUS
 62
     3
100
AcDbLine
 10
139.4099999999999
 20
83.506
 30
0.0
 11
139.4099999999999
 21
78.506
 31
0.0
  0
LINE
  5
2313
330
2309
100
AcDbEntity
  8
1
  6
CONTINUOUS
 62
     3
100
AcDbLine
 10
139.4099999999999
 20
78.506
 30
0.0
 11
139.4099999999999
 21
69.536
 31
0.0
  0
TEXT
  5
2314
330
2309
100
AcDbEntity
  8
1
  6
CONTINUOUS
 62
     2
100
AcDbText
 10
138.7439999999999
 20
71.51933333333333
 30
0.0
 40
2.0
  1
5
 50
90.0
 41
0.9399999999999998
 72
     1
 11
137.7439999999999
 21
72.146
 31
0.0
100
AcDbText
 73
     2
  0
LINE
  5
2315
330
2309
100
AcDbEntity
  8
1
  6
CONTINUOUS
 62
     3
100
AcDbLine
 10
142.079
 20
78.506
 30
0.0
 11
138.7439999999999
 21
78.506
 31
0.0
  0
POINT
  5
2316
330
2309
100
AcDbEntity
  8
DEFPOINTS
 62
     3
100
AcDbPoint
 10
136.0289999999999
 20
83.506
 30
0.0
  0
POINT
  5
2317
330
2309
100
AcDbEntity
  8
DEFPOINTS
 62
     3
100
AcDbPoint
 10
142.679
 20
78.506
 30
0.0
  0
POINT
  5
2318
330
2309
100
AcDbEntity
  8
DEFPOINTS
 62
     3
100
AcDbPoint
 10
139.4099999999999
 20
78.506
 30
0.0
  0
ENDBLK
  5
231A
330
2309
100
AcDbEntity
  8
0
100
AcDbBlockEnd
  0
BLOCK
  5
2329
330
231B
100
AcDbEntity
  8
0
100
AcDbBlockBegin
  2
*D14
 70
     1
 10
0.0
 20
0.0
 30
0.0
  3
*D14
  1

  0
LINE
  5
231C
330
231B
100
AcDbEntity
  8
1
  6
CONTINUOUS
 62
     3
100
AcDbLine
 10
140.629
 20
114.5059999999999
 30
0.0
 11
132.675
 21
114.5059999999999
 31
0.0
  0
LINE
  5
231D
330
231B
100
AcDbEntity
  8
1
  6
CONTINUOUS
 62
     2
100
AcDbLine
 10
133.341
 20
114.5059999999999
 30
0.0
 11
133.7909999999999
 21
112.006
 31
0.0
  0
LINE
  5
231E
330
231B
100
AcDbEntity
  8
1
  6
CONTINUOUS
 62
     2
100
AcDbLine
 10
133.7909999999999
 20
112.006
 30
0.0
 11
132.891
 21
112.006
 31
0.0
  0
LINE
  5
231F
330
231B
100
AcDbEntity
  8
1
  6
CONTINUOUS
 62
     2
100
AcDbLine
 10
132.891
 20
112.006
 30
0.0
 11
133.341
 21
114.5059999999999
 31
0.0
  0
LINE
  5
2320
330
231B
100
AcDbEntity
  8
1
  6
CONTINUOUS
 62
     2
100
AcDbLine
 10
133.341
 20
83.506
 30
0.0
 11
132.891
 21
86.006
 31
0.0
  0
LINE
  5
2321
330
231B
100
AcDbEntity
  8
1
  6
CONTINUOUS
 62
     2
100
AcDbLine
 10
132.891
 20
86.006
 30
0.0
 11
133.7909999999999
 21
86.006
 31
0.0
  0
LINE
  5
2322
330
231B
100
AcDbEntity
  8
1
  6
CONTINUOUS
 62
     2
100
AcDbLine
 10
133.7909999999999
 20
86.006
 30
0.0
 11
133.341
 21
83.506
 31
0.0
  0
LINE
  5
2323
330
231B
100
AcDbEntity
  8
1
  6
CONTINUOUS
 62
     3
100
AcDbLine
 10
133.341
 20
114.5059999999999
 30
0.0
 11
133.341
 21
83.506
 31
0.0
  0
TEXT
  5
2324
330
231B
100
AcDbEntity
  8
1
  6
CONTINUOUS
 62
     2
100
AcDbText
 10
132.675
 20
97.75266666666666
 30
0.0
 40
2.0
  1
31
 50
90.0
 41
0.9399999999999998
 72
     1
 11
131.675
 21
99.006
 31
0.0
100
AcDbText
 73
     2
  0
LINE
  5
2325
330
231B
100
AcDbEntity
  8
1
  6
CONTINUOUS
 62
     3
100
AcDbLine
 10
135.4289999999999
 20
83.506
 30
0.0
 11
132.675
 21
83.506
 31
0.0
  0
POINT
  5
2326
330
231B
100
AcDbEntity
  8
DEFPOINTS
 62
     3
100
AcDbPoint
 10
141.2289999999998
 20
114.5059999999999
 30
0.0
  0
POINT
  5
2327
330
231B
100
AcDbEntity
  8
DEFPOINTS
 62
     3
100
AcDbPoint
 10
136.0289999999999
 20
83.506
 30
0.0
  0
POINT
  5
2328
330
231B
100
AcDbEntity
  8
DEFPOINTS
 62
     3
100
AcDbPoint
 10
133.341
 20
83.506
 30
0.0
  0
ENDBLK
  5
232A
330
231B
100
AcDbEntity
  8
0
100
AcDbBlockEnd
  0
BLOCK
  5
2339
330
232B
100
AcDbEntity
  8
0
100
AcDbBlockBegin
  2
*D15
 70
     1
 10
0.0
 20
0.0
 30
0.0
  3
*D15
  1

  0
LINE
  5
232C
330
232B
100
AcDbEntity
  8
1
  6
CONTINUOUS
 62
     3
100
AcDbLine
 10
125.557
 20
64.59899999999999
 30
0.0
 11
125.557
 21
70.34899999999999
 31
0.0
  0
LINE
  5
232D
330
232B
100
AcDbEntity
  8
1
  6
CONTINUOUS
 62
     2
100
AcDbLine
 10
125.557
 20
69.682
 30
0.0
 11
123.0569999999999
 21
69.232
 31
0.0
  0
LINE
  5
232E
330
232B
100
AcDbEntity
  8
1
  6
CONTINUOUS
 62
     2
100
AcDbLine
 10
123.0569999999999
 20
69.232
 30
0.0
 11
123.0569999999999
 21
70.13200000000001
 31
0.0
  0
LINE
  5
232F
330
232B
100
AcDbEntity
  8
1
  6
CONTINUOUS
 62
     2
100
AcDbLine
 10
123.0569999999999
 20
70.13200000000001
 30
0.0
 11
125.557
 21
69.682
 31
0.0
  0
LINE
  5
2330
330
232B
100
AcDbEntity
  8
1
  6
CONTINUOUS
 62
     2
100
AcDbLine
 10
110.057
 20
69.682
 30
0.0
 11
112.5569999999999
 21
70.13200000000001
 31
0.0
  0
LINE
  5
2331
330
232B
100
AcDbEntity
  8
1
  6
CONTINUOUS
 62
     2
100
AcDbLine
 10
112.5569999999999
 20
70.13200000000001
 30
0.0
 11
112.5569999999999
 21
69.232
 31
0.0
  0
LINE
  5
2332
330
232B
100
AcDbEntity
  8
1
  6
CONTINUOUS
 62
     2
100
AcDbLine
 10
112.5569999999999
 20
69.232
 30
0.0
 11
110.057
 21
69.682
 31
0.0
  0
LINE
  5
2333
330
232B
100
AcDbEntity
  8
1
  6
CONTINUOUS
 62
     3
100
AcDbLine
 10
125.557
 20
69.682
 30
0.0
 11
110.057
 21
69.682
 31
0.0
  0
TEXT
  5
2334
330
232B
100
AcDbEntity
  8
1
  6
CONTINUOUS
 62
     2
100
AcDbText
 10
115.3003333333332
 20
70.34899999999997
 30
0.0
 40
2.0
  1
15.5
 50
360.0
 41
0.9399999999999998
 72
     1
 11
117.8069999999999
 21
71.34899999999998
 31
0.0
100
AcDbText
 73
     2
  0
LINE
  5
2335
330
232B
100
AcDbEntity
  8
1
  6
CONTINUOUS
 62
     3
100
AcDbLine
 10
110.057
 20
64.59899999999999
 30
0.0
 11
110.057
 21
70.34899999999999
 31
0.0
  0
POINT
  5
2336
330
232B
100
AcDbEntity
  8
DEFPOINTS
 62
     3
100
AcDbPoint
 10
125.557
 20
63.99899999999998
 30
0.0
  0
POINT
  5
2337
330
232B
100
AcDbEntity
  8
DEFPOINTS
 62
     3
100
AcDbPoint
 10
110.057
 20
63.99899999999998
 30
0.0
  0
POINT
  5
2338
330
232B
100
AcDbEntity
  8
DEFPOINTS
 62
     3
100
AcDbPoint
 10
110.057
 20
69.682
 30
0.0
  0
ENDBLK
  5
233A
330
232B
100
AcDbEntity
  8
0
100
AcDbBlockEnd
  0
BLOCK
  5
2349
330
233B
100
AcDbEntity
  8
0
100
AcDbBlockBegin
  2
*D16
 70
     1
 10
0.0
 20
0.0
 30
0.0
  3
*D16
  1

  0
LINE
  5
233C
330
233B
100
AcDbEntity
  8
1
  6
CONTINUOUS
 62
     3
100
AcDbLine
 10
117.207
 20
50.699
 30
0.0
 11
102.2289999999999
 21
50.699
 31
0.0
  0
LINE
  5
233D
330
233B
100
AcDbEntity
  8
1
  6
CONTINUOUS
 62
     2
100
AcDbLine
 10
102.896
 20
50.699
 30
0.0
 11
102.4459999999999
 21
53.199
 31
0.0
  0
LINE
  5
233E
330
233B
100
AcDbEntity
  8
1
  6
CONTINUOUS
 62
     2
100
AcDbLine
 10
102.4459999999999
 20
53.199
 30
0.0
 11
103.346
 21
53.199
 31
0.0
  0
LINE
  5
233F
330
233B
100
AcDbEntity
  8
1
  6
CONTINUOUS
 62
     2
100
AcDbLine
 10
103.346
 20
53.199
 30
0.0
 11
102.896
 21
50.699
 31
0.0
  0
LINE
  5
2340
330
233B
100
AcDbEntity
  8
1
  6
CONTINUOUS
 62
     2
100
AcDbLine
 10
102.896
 20
64.79899999999999
 30
0.0
 11
103.346
 21
62.299
 31
0.0
  0
LINE
  5
2341
330
233B
100
AcDbEntity
  8
1
  6
CONTINUOUS
 62
     2
100
AcDbLine
 10
103.346
 20
62.299
 30
0.0
 11
102.4459999999999
 21
62.299
 31
0.0
  0
LINE
  5
2342
330
233B
100
AcDbEntity
  8
1
  6
CONTINUOUS
 62
     2
100
AcDbLine
 10
102.4459999999999
 20
62.299
 30
0.0
 11
102.896
 21
64.79899999999999
 31
0.0
  0
LINE
  5
2343
330
233B
100
AcDbEntity
  8
1
  6
CONTINUOUS
 62
     3
100
AcDbLine
 10
102.896
 20
50.699
 30
0.0
 11
102.896
 21
64.79899999999999
 31
0.0
  0
TEXT
  5
2344
330
233B
100
AcDbEntity
  8
1
  6
CONTINUOUS
 62
     2
100
AcDbText
 10
102.2289999999999
 20
55.55566666666664
 30
0.0
 40
2.0
  1
14.1
 50
90.0
 41
0.9399999999999998
 72
     1
 11
101.2289999999999
 21
57.74899999999998
 31
0.0
100
AcDbText
 73
     2
  0
LINE
  5
2345
330
233B
100
AcDbEntity
  8
1
  6
CONTINUOUS
 62
     3
100
AcDbLine
 10
110.257
 20
64.79899999999999
 30
0.0
 11
102.2289999999999
 21
64.79899999999999
 31
0.0
  0
POINT
  5
2346
330
233B
100
AcDbEntity
  8
DEFPOINTS
 62
     3
100
AcDbPoint
 10
117.8069999999999
 20
50.699
 30
0.0
  0
POINT
  5
2347
330
233B
100
AcDbEntity
  8
DEFPOINTS
 62
     3
100
AcDbPoint
 10
110.857
 20
64.79899999999999
 30
0.0
  0
POINT
  5
2348
330
233B
100
AcDbEntity
  8
DEFPOINTS
 62
     3
100
AcDbPoint
 10
102.896
 20
64.79899999999999
 30
0.0
  0
ENDBLK
  5
234A
330
233B
100
AcDbEntity
  8
0
100
AcDbBlockEnd
  0
BLOCK
  5
2359
330
234B
100
AcDbEntity
  8
0
100
AcDbBlockBegin
  2
*D17
 70
     1
 10
0.0
 20
0.0
 30
0.0
  3
*D17
  1

  0
LINE
  5
234C
330
234B
100
AcDbEntity
  8
1
  6
CONTINUOUS
 62
     3
100
AcDbLine
 10
110.257
 20
54.29899999999999
 30
0.0
 11
107.231
 21
54.29899999999999
 31
0.0
  0
LINE
  5
234D
330
234B
100
AcDbEntity
  8
1
  6
CONTINUOUS
 62
     2
100
AcDbLine
 10
107.898
 20
54.29899999999999
 30
0.0
 11
107.4479999999999
 21
56.79899999999999
 31
0.0
  0
LINE
  5
234E
330
234B
100
AcDbEntity
  8
1
  6
CONTINUOUS
 62
     2
100
AcDbLine
 10
107.4479999999999
 20
56.79899999999999
 30
0.0
 11
108.3479999999999
 21
56.79899999999999
 31
0.0
  0
LINE
  5
234F
330
234B
100
AcDbEntity
  8
1
  6
CONTINUOUS
 62
     2
100
AcDbLine
 10
108.3479999999999
 20
56.79899999999999
 30
0.0
 11
107.898
 21
54.29899999999999
 31
0.0
  0
LINE
  5
2350
330
234B
100
AcDbEntity
  8
1
  6
CONTINUOUS
 62
     2
100
AcDbLine
 10
107.898
 20
64.79899999999999
 30
0.0
 11
108.3479999999999
 21
62.299
 31
0.0
  0
LINE
  5
2351
330
234B
100
AcDbEntity
  8
1
  6
CONTINUOUS
 62
     2
100
AcDbLine
 10
108.3479999999999
 20
62.299
 30
0.0
 11
107.4479999999999
 21
62.299
 31
0.0
  0
LINE
  5
2352
330
234B
100
AcDbEntity
  8
1
  6
CONTINUOUS
 62
     2
100
AcDbLine
 10
107.4479999999999
 20
62.299
 30
0.0
 11
107.898
 21
64.79899999999999
 31
0.0
  0
LINE
  5
2353
330
234B
100
AcDbEntity
  8
1
  6
CONTINUOUS
 62
     3
100
AcDbLine
 10
107.898
 20
54.29899999999999
 30
0.0
 11
107.898
 21
64.79899999999999
 31
0.0
  0
TEXT
  5
2354
330
234B
100
AcDbEntity
  8
1
  6
CONTINUOUS
 62
     2
100
AcDbText
 10
107.231
 20
57.19899999999999
 30
0.0
 40
2.0
  1
10.5
 50
90.0
 41
0.9399999999999998
 72
     1
 11
106.231
 21
59.549
 31
0.0
100
AcDbText
 73
     2
  0
LINE
  5
2355
330
234B
100
AcDbEntity
  8
1
  6
CONTINUOUS
 62
     3
100
AcDbLine
 10
110.257
 20
64.79899999999999
 30
0.0
 11
107.231
 21
64.79899999999999
 31
0.0
  0
POINT
  5
2356
330
234B
100
AcDbEntity
  8
DEFPOINTS
 62
     3
100
AcDbPoint
 10
110.857
 20
54.29899999999999
 30
0.0
  0
POINT
  5
2357
330
234B
100
AcDbEntity
  8
DEFPOINTS
 62
     3
100
AcDbPoint
 10
110.857
 20
64.79899999999999
 30
0.0
  0
POINT
  5
2358
330
234B
100
AcDbEntity
  8
DEFPOINTS
 62
     3
100
AcDbPoint
 10
107.898
 20
64.79899999999999
 30
0.0
  0
ENDBLK
  5
235A
330
234B
100
AcDbEntity
  8
0
100
AcDbBlockEnd
  0
BLOCK
  5
2535
330
252B
100
AcDbEntity
  8
0
100
AcDbBlockBegin
  2
*D18
 70
     1
 10
0.0
 20
0.0
 30
0.0
  3
*D18
  1

  0
LINE
  5
2568
330
252B
100
AcDbEntity
  8
1
  6
CONTINUOUS
 62
     0
100
AcDbLine
 10
76.68227800712033
 20
198.7161242262348
 30
0.0
 11
59.80727800712035
 21
198.7161242262348
 31
0.0
  0
LINE
  5
2569
330
252B
100
AcDbEntity
  8
1
  6
CONTINUOUS
 62
     0
100
AcDbLine
 10
69.73227800712034
 20
212.8161242262349
 30
0.0
 11
59.80727800712035
 21
212.8161242262349
 31
0.0
  0
LINE
  5
256A
330
252B
100
AcDbEntity
  8
1
  6
CONTINUOUS
 62
     0
100
AcDbLine
 10
60.47427800712036
 20
201.216124226235
 30
0.0
 11
60.47427800712036
 21
210.3161242262348
 31
0.0
  0
SOLID
  5
256B
330
252B
100
AcDbEntity
  8
1
  6
CONTINUOUS
 62
     0
100
AcDbTrace
 10
60.05761134045368
 20
201.216124226235
 30
0.0
 11
60.89094467378701
 21
201.216124226235
 31
0.0
 12
60.47427800712036
 22
198.7161242262348
 32
0.0
 13
60.47427800712036
 23
198.7161242262348
 33
0.0
  0
SOLID
  5
256C
330
252B
100
AcDbEntity
  8
1
  6
CONTINUOUS
 62
     0
100
AcDbTrace
 10
60.05761134045369
 20
210.3161242262348
 30
0.0
 11
60.89094467378702
 21
210.3161242262348
 31
0.0
 12
60.47427800712036
 22
212.8161242262349
 32
0.0
 13
60.47427800712036
 23
212.8161242262349
 33
0.0
  0
MTEXT
  5
256D
330
252B
100
AcDbEntity
  8
1
  6
CONTINUOUS
 62
     2
100
AcDbMText
 10
59.0685481299034
 20
205.7661242262347
 30
0.0
 40
2.0
 41
0.0
 71
     5
 72
     1
  1
\A1;14.1
  7
TSTYLE1
 11
0.0000000000000001
 21
1.0
 31
0.0
1001
ACAD
1000
MTEXTBEGIN
1070
    73
1070
     1
1070
    44
1040
1.0
1070
    74
1070
     0
1000
MTEXTEND
1000
MTEXTBEGIN
1070
    73
1070
     1
1070
    44
1040
1.0
1070
    74
1070
     0
1000
MTEXTEND
1000
MTEXTBEGIN
1070
    73
1070
     1
1070
    44
1040
1.0
1070
    74
1070
     0
1000
MTEXTEND
  0
POINT
  5
256E
330
252B
100
AcDbEntity
  8
DEFPOINTS
  6
CONTINUOUS
 62
     0
100
AcDbPoint
 10
77.28227800712033
 20
198.7161242262348
 30
0.0
  0
POINT
  5
256F
330
252B
100
AcDbEntity
  8
DEFPOINTS
  6
CONTINUOUS
 62
     0
100
AcDbPoint
 10
70.33227800712033
 20
212.8161242262349
 30
0.0
  0
POINT
  5
2570
330
252B
100
AcDbEntity
  8
DEFPOINTS
  6
CONTINUOUS
 62
     0
100
AcDbPoint
 10
60.47427800712036
 20
212.8161242262349
 30
0.0
  0
ENDBLK
  5
2536
330
252B
100
AcDbEntity
  8
0
100
AcDbBlockEnd
  0
BLOCK
  5
2541
330
2537
100
AcDbEntity
  8
0
100
AcDbBlockBegin
  2
*D19
 70
     1
 10
0.0
 20
0.0
 30
0.0
  3
*D19
  1

  0
LINE
  5
2571
330
2537
100
AcDbEntity
  8
1
  6
CONTINUOUS
 62
     0
100
AcDbLine
 10
85.0322780071203
 20
212.6161242262349
 30
0.0
 11
85.0322780071203
 21
220.2631242262349
 31
0.0
  0
LINE
  5
2572
330
2537
100
AcDbEntity
  8
1
  6
CONTINUOUS
 62
     0
100
AcDbLine
 10
69.53227800712032
 20
212.6161242262349
 30
0.0
 11
69.53227800712032
 21
220.2631242262349
 31
0.0
  0
LINE
  5
2573
330
2537
100
AcDbEntity
  8
1
  6
CONTINUOUS
 62
     0
100
AcDbLine
 10
82.5322780071203
 20
219.5961242262348
 30
0.0
 11
72.03227800712031
 21
219.5961242262348
 31
0.0
  0
SOLID
  5
2574
330
2537
100
AcDbEntity
  8
1
  6
CONTINUOUS
 62
     0
100
AcDbTrace
 10
82.5322780071203
 20
220.0127908929016
 30
0.0
 11
82.5322780071203
 21
219.1794575595681
 31
0.0
 12
85.0322780071203
 22
219.5961242262348
 32
0.0
 13
85.0322780071203
 23
219.5961242262348
 33
0.0
  0
SOLID
  5
2575
330
2537
100
AcDbEntity
  8
1
  6
CONTINUOUS
 62
     0
100
AcDbTrace
 10
72.03227800712031
 20
220.0127908929016
 30
0.0
 11
72.03227800712031
 21
219.1794575595681
 31
0.0
 12
69.53227800712032
 22
219.5961242262348
 32
0.0
 13
69.53227800712032
 23
219.5961242262348
 33
0.0
  0
MTEXT
  5
2576
330
2537
100
AcDbEntity
  8
1
  6
CONTINUOUS
 62
     2
100
AcDbMText
 10
77.28227800712033
 20
221.0257285918557
 30
0.0
 40
2.0
 41
0.0
 71
     5
 72
     1
  1
\A1;15.5
  7
TSTYLE1
1001
ACAD
1000
MTEXTBEGIN
1070
    73
1070
     1
1070
    44
1040
1.0
1070
    74
1070
     0
1000
MTEXTEND
1000
MTEXTBEGIN
1070
    73
1070
     1
1070
    44
1040
1.0
1070
    74
1070
     0
1000
MTEXTEND
1000
MTEXTBEGIN
1070
    73
1070
     1
1070
    44
1040
1.0
1070
    74
1070
     0
1000
MTEXTEND
  0
POINT
  5
2577
330
2537
100
AcDbEntity
  8
DEFPOINTS
  6
CONTINUOUS
 62
     0
100
AcDbPoint
 10
85.0322780071203
 20
212.0161242262347
 30
0.0
  0
POINT
  5
2578
330
2537
100
AcDbEntity
  8
DEFPOINTS
  6
CONTINUOUS
 62
     0
100
AcDbPoint
 10
69.53227800712032
 20
212.0161242262347
 30
0.0
  0
POINT
  5
2579
330
2537
100
AcDbEntity
  8
DEFPOINTS
  6
CONTINUOUS
 62
     0
100
AcDbPoint
 10
69.53227800712032
 20
219.5961242262348
 30
0.0
  0
ENDBLK
  5
2542
330
2537
100
AcDbEntity
  8
0
100
AcDbBlockEnd
  0
BLOCK
  5
254D
330
2543
100
AcDbEntity
  8
0
100
AcDbBlockBegin
  2
*D20
 70
     1
 10
0.0
 20
0.0
 30
0.0
  3
*D20
  1

  0
LINE
  5
257A
330
2543
100
AcDbEntity
  8
1
  6
CONTINUOUS
 62
     0
100
AcDbLine
 10
69.73227800712034
 20
202.3161242262349
 30
0.0
 11
64.80927800712035
 21
202.3161242262349
 31
0.0
  0
LINE
  5
257B
330
2543
100
AcDbEntity
  8
1
  6
CONTINUOUS
 62
     0
100
AcDbLine
 10
69.73227800712034
 20
212.8161242262349
 30
0.0
 11
64.80927800712035
 21
212.8161242262349
 31
0.0
  0
LINE
  5
257C
330
2543
100
AcDbEntity
  8
1
  6
CONTINUOUS
 62
     0
100
AcDbLine
 10
65.47627800712035
 20
204.8161242262349
 30
0.0
 11
65.47627800712035
 21
210.3161242262348
 31
0.0
  0
SOLID
  5
257D
330
2543
100
AcDbEntity
  8
1
  6
CONTINUOUS
 62
     0
100
AcDbTrace
 10
65.05961134045368
 20
204.8161242262349
 30
0.0
 11
65.89294467378703
 21
204.8161242262349
 31
0.0
 12
65.47627800712035
 22
202.3161242262349
 32
0.0
 13
65.47627800712035
 23
202.3161242262349
 33
0.0
  0
SOLID
  5
257E
330
2543
100
AcDbEntity
  8
1
  6
CONTINUOUS
 62
     0
100
AcDbTrace
 10
65.05961134045368
 20
210.3161242262348
 30
0.0
 11
65.89294467378703
 21
210.3161242262348
 31
0.0
 12
65.47627800712035
 22
212.8161242262349
 32
0.0
 13
65.47627800712035
 23
212.8161242262349
 33
0.0
  0
MTEXT
  5
257F
330
2543
100
AcDbEntity
  8
1
  6
CONTINUOUS
 62
     2
100
AcDbMText
 10
64.04667364149959
 20
207.5661242262349
 30
0.0
 40
2.0
 41
0.0
 71
     5
 72
     1
  1
\A1;10.5
  7
TSTYLE1
 11
0.0000000000000001
 21
1.0
 31
0.0
1001
ACAD
1000
MTEXTBEGIN
1070
    73
1070
     1
1070
    44
1040
1.0
1070
    74
1070
     0
1000
MTEXTEND
1000
MTEXTBEGIN
1070
    73
1070
     1
1070
    44
1040
1.0
1070
    74
1070
     0
1000
MTEXTEND
1000
MTEXTBEGIN
1070
    73
1070
     1
1070
    44
1040
1.0
1070
    74
1070
     0
1000
MTEXTEND
  0
POINT
  5
2580
330
2543
100
AcDbEntity
  8
DEFPOINTS
  6
CONTINUOUS
 62
     0
100
AcDbPoint
 10
70.33227800712033
 20
202.3161242262349
 30
0.0
  0
POINT
  5
2581
330
2543
100
AcDbEntity
  8
DEFPOINTS
  6
CONTINUOUS
 62
     0
100
AcDbPoint
 10
70.33227800712033
 20
212.8161242262349
 30
0.0
  0
POINT
  5
2582
330
2543
100
AcDbEntity
  8
DEFPOINTS
  6
CONTINUOUS
 62
     0
100
AcDbPoint
 10
65.47627800712035
 20
212.8161242262349
 30
0.0
  0
ENDBLK
  5
254E
330
2543
100
AcDbEntity
  8
0
100
AcDbBlockEnd
  0
BLOCK
  5
2559
330
254F
100
AcDbEntity
  8
0
100
AcDbBlockBegin
  2
*D21
 70
     1
 10
0.0
 20
0.0
 30
0.0
  3
*D21
  1

  0
LINE
  5
2583
330
254F
100
AcDbEntity
  8
1
  6
CONTINUOUS
 62
     0
100
AcDbLine
 10
100.1042780071202
 20
262.5231242262348
 30
0.0
 11
90.25327800712036
 21
262.5231242262348
 31
0.0
  0
LINE
  5
2584
330
254F
100
AcDbEntity
  8
1
  6
CONTINUOUS
 62
     0
100
AcDbLine
 10
94.90427800712032
 20
231.5231242262349
 30
0.0
 11
90.25327800712036
 21
231.5231242262349
 31
0.0
  0
LINE
  5
2585
330
254F
100
AcDbEntity
  8
1
  6
CONTINUOUS
 62
     0
100
AcDbLine
 10
90.92027800712036
 20
260.0231242262348
 30
0.0
 11
90.92027800712036
 21
234.0231242262349
 31
0.0
  0
SOLID
  5
2586
330
254F
100
AcDbEntity
  8
1
  6
CONTINUOUS
 62
     0
100
AcDbTrace
 10
90.50361134045369
 20
260.0231242262348
 30
0.0
 11
91.33694467378704
 21
260.0231242262348
 31
0.0
 12
90.92027800712036
 22
262.5231242262348
 32
0.0
 13
90.92027800712036
 23
262.5231242262348
 33
0.0
  0
SOLID
  5
2587
330
254F
100
AcDbEntity
  8
1
  6
CONTINUOUS
 62
     0
100
AcDbTrace
 10
90.50361134045369
 20
234.0231242262349
 30
0.0
 11
91.33694467378704
 21
234.0231242262349
 31
0.0
 12
90.92027800712036
 22
231.5231242262349
 32
0.0
 13
90.92027800712036
 23
231.5231242262349
 33
0.0
  0
MTEXT
  5
2588
330
254F
100
AcDbEntity
  8
1
  6
CONTINUOUS
 62
     2
100
AcDbMText
 10
89.48971866196343
 20
247.0231242262348
 30
0.0
 40
2.0
 41
0.0
 71
     5
 72
     1
  1
\A1;31
  7
TSTYLE1
 11
0.0000000000000001
 21
1.0
 31
0.0
1001
ACAD
1000
MTEXTBEGIN
1070
    73
1070
     1
1070
    44
1040
1.0
1070
    74
1070
     0
1000
MTEXTEND
1000
MTEXTBEGIN
1070
    73
1070
     1
1070
    44
1040
1.0
1070
    74
1070
     0
1000
MTEXTEND
1000
MTEXTBEGIN
1070
    73
1070
     1
1070
    44
1040
1.0
1070
    74
1070
     0
1000
MTEXTEND
  0
POINT
  5
2589
330
254F
100
AcDbEntity
  8
DEFPOINTS
  6
CONTINUOUS
 62
     0
100
AcDbPoint
 10
100.7042780071203
 20
262.5231242262348
 30
0.0
  0
POINT
  5
258A
330
254F
100
AcDbEntity
  8
DEFPOINTS
  6
CONTINUOUS
 62
     0
100
AcDbPoint
 10
95.5042780071203
 20
231.5231242262349
 30
0.0
  0
POINT
  5
258B
330
254F
100
AcDbEntity
  8
DEFPOINTS
  6
CONTINUOUS
 62
     0
100
AcDbPoint
 10
90.92027800712036
 20
231.5231242262349
 30
0.0
  0
ENDBLK
  5
255A
330
254F
100
AcDbEntity
  8
0
100
AcDbBlockEnd
  0
BLOCK
  5
2566
330
255B
100
AcDbEntity
  8
0
100
AcDbBlockBegin
  2
*D22
 70
     1
 10
0.0
 20
0.0
 30
0.0
  3
*D22
  1

  0
LINE
  5
258C
330
255B
100
AcDbEntity
  8
1
  6
CONTINUOUS
 62
     0
100
AcDbLine
 10
96.10427800712031
 20
231.5231242262349
 30
0.0
 11
97.6562780071204
 21
231.5231242262349
 31
0.0
  0
LINE
  5
258D
330
255B
100
AcDbEntity
  8
1
  6
CONTINUOUS
 62
     0
100
AcDbLine
 10
101.5542780071203
 20
226.5231242262348
 30
0.0
 11
96.32227800712037
 21
226.5231242262348
 31
0.0
  0
LINE
  5
258E
330
255B
100
AcDbEntity
  8
1
  6
CONTINUOUS
 62
     0
100
AcDbLine
 10
96.98927800712038
 20
226.5231242262348
 30
0.0
 11
96.98927800712036
 21
219.533247009318
 31
0.0
  0
SOLID
  5
258F
330
255B
100
AcDbEntity
  8
1
  6
CONTINUOUS
 62
     0
100
AcDbTrace
 10
96.5726113404537
 20
229.0231242262349
 30
0.0
 11
97.40594467378706
 21
229.0231242262349
 31
0.0
 12
96.98927800712038
 22
231.5231242262349
 32
0.0
 13
96.98927800712038
 23
231.5231242262349
 33
0.0
  0
SOLID
  5
2590
330
255B
100
AcDbEntity
  8
1
  6
CONTINUOUS
 62
     0
100
AcDbTrace
 10
96.5726113404537
 20
229.0231242262349
 30
0.0
 11
97.40594467378706
 21
229.0231242262349
 31
0.0
 12
96.98927800712038
 22
226.5231242262348
 32
0.0
 13
96.98927800712038
 23
226.5231242262348
 33
0.0
  0
MTEXT
  5
2591
330
255B
100
AcDbEntity
  8
1
  6
CONTINUOUS
 62
     2
100
AcDbMText
 10
95.56540351871651
 20
220.1631242262348
 30
0.0
 40
2.0
 41
0.0
 71
     5
 72
     1
  1
\A1;5
  7
TSTYLE1
 11
0.0000000000000001
 21
1.0
 31
0.0
1001
ACAD
1000
MTEXTBEGIN
1070
    73
1070
     1
1070
    44
1040
1.0
1070
    74
1070
     0
1000
MTEXTEND
1000
MTEXTBEGIN
1070
    73
1070
     1
1070
    44
1040
1.0
1070
    74
1070
     0
1000
MTEXTEND
1000
MTEXTBEGIN
1070
    73
1070
     1
1070
    44
1040
1.0
1070
    74
1070
     0
1000
MTEXTEND
  0
POINT
  5
2592
330
255B
100
AcDbEntity
  8
DEFPOINTS
  6
CONTINUOUS
 62
     0
100
AcDbPoint
 10
95.5042780071203
 20
231.5231242262349
 30
0.0
  0
POINT
  5
2593
330
255B
100
AcDbEntity
  8
DEFPOINTS
  6
CONTINUOUS
 62
     0
100
AcDbPoint
 10
102.1542780071203
 20
226.5231242262348
 30
0.0
  0
POINT
  5
2594
330
255B
100
AcDbEntity
  8
DEFPOINTS
  6
CONTINUOUS
 62
     0
100
AcDbPoint
 10
96.98927800712038
 20
226.5231242262348
 30
0.0
  0
ENDBLK
  5
2567
330
255B
100
AcDbEntity
  8
0
100
AcDbBlockEnd
  0
BLOCK
  5
2615
330
2609
100
AcDbEntity
  8
0
100
AcDbBlockBegin
  2
*D23
 70
     1
 10
0.0
 20
0.0
 30
0.0
  3
*D23
  1

  0
LINE
  5
2617
330
2609
100
AcDbEntity
  8
DIM
  6
CONTINUOUS
100
AcDbLine
 10
97.07927800712031
 20
231.5231242262349
 30
0.0
 11
92.89427768487191
 21
231.5231242262349
 31
0.0
  0
LINE
  5
2618
330
2609
100
AcDbEntity
  8
DIM
  6
CONTINUOUS
100
AcDbLine
 10
100.1542780071203
 20
226.5231242262348
 30
0.0
 11
92.89427768487191
 21
226.5231242262348
 31
0.0
  0
LINE
  5
2619
330
2609
100
AcDbEntity
  8
DIM
  6
CONTINUOUS
100
AcDbLine
 10
94.14427768487191
 20
234.0231242262349
 30
0.0
 11
94.14427768487191
 21
236.5231242262348
 31
0.0
  0
LINE
  5
261A
330
2609
100
AcDbEntity
  8
DIM
  6
CONTINUOUS
100
AcDbLine
 10
94.14427768487191
 20
224.0231242262348
 30
0.0
 11
94.14427768487188
 21
221.5231242262349
 31
0.0
  0
LINE
  5
261B
330
2609
100
AcDbEntity
  8
DIM
  6
CONTINUOUS
100
AcDbLine
 10
94.14427768487191
 20
231.5231242262349
 30
0.0
 11
94.14427768487191
 21
226.5231242262348
 31
0.0
  0
SOLID
  5
261C
330
2609
100
AcDbEntity
  8
DIM
  6
CONTINUOUS
100
AcDbTrace
 10
93.72761101820522
 20
234.0231242262349
 30
0.0
 11
94.56094435153856
 21
234.0231242262349
 31
0.0
 12
94.14427768487191
 22
231.5231242262349
 32
0.0
 13
94.14427768487191
 23
231.5231242262349
 33
0.0
  0
SOLID
  5
261D
330
2609
100
AcDbEntity
  8
DIM
  6
CONTINUOUS
100
AcDbTrace
 10
93.72761101820522
 20
224.0231242262348
 30
0.0
 11
94.56094435153856
 21
224.0231242262348
 31
0.0
 12
94.14427768487191
 22
226.5231242262348
 32
0.0
 13
94.14427768487191
 23
226.5231242262348
 33
0.0
  0
MTEXT
  5
261E
330
2609
100
AcDbEntity
  8
DIM
  6
CONTINUOUS
 62
     2
100
AcDbMText
 10
92.6039297994694
 20
229.023124226235
 30
0.0
 40
1.8
 41
0.0
 71
     5
 72
     1
  1
5
  7
FINDER
 11
0.0000000000000001
 21
1.0
 31
0.0
1001
ACAD
1000
MTEXTBEGIN
1070
    73
1070
     1
1070
    44
1040
1.0
1070
    74
1070
     0
1000
MTEXTEND
1000
MTEXTBEGIN
1070
    73
1070
     1
1070
    44
1040
1.0
1070
    74
1070
     0
1000
MTEXTEND
1000
MTEXTBEGIN
1070
    73
1070
     1
1070
    44
1040
1.0
1070
    74
1070
     0
1000
MTEXTEND
  0
POINT
  5
261F
330
2609
100
AcDbEntity
  8
DEFPOINTS
  6
CONTINUOUS
 62
     0
100
AcDbPoint
 10
99.0792780071203
 20
231.5231242262349
 30
0.0
  0
POINT
  5
2620
330
2609
100
AcDbEntity
  8
DEFPOINTS
  6
CONTINUOUS
 62
     0
100
AcDbPoint
 10
102.1542780071203
 20
226.5231242262348
 30
0.0
  0
POINT
  5
2621
330
2609
100
AcDbEntity
  8
DEFPOINTS
  6
CONTINUOUS
 62
     0
100
AcDbPoint
 10
94.14427768487191
 20
226.5231242262348
 30
0.0
  0
ENDBLK
  5
2616
330
2609
100
AcDbEntity
  8
0
100
AcDbBlockEnd
  0
BLOCK
  5
262D
330
2623
100
AcDbEntity
  8
0
100
AcDbBlockBegin
  2
*D24
 70
     1
 10
0.0
 20
0.0
 30
0.0
  3
*D24
  1

  0
LINE
  5
2624
330
2623
100
AcDbEntity
  8
1
  6
CONTINUOUS
 62
     0
100
AcDbLine
 10
76.68227800712033
 20
198.7161242262348
 30
0.0
 11
59.80727800712035
 21
198.7161242262348
 31
0.0
  0
LINE
  5
2625
330
2623
100
AcDbEntity
  8
1
  6
CONTINUOUS
 62
     0
100
AcDbLine
 10
69.73227800712034
 20
212.8161242262349
 30
0.0
 11
59.80727800712035
 21
212.8161242262349
 31
0.0
  0
LINE
  5
2626
330
2623
100
AcDbEntity
  8
1
  6
CONTINUOUS
 62
     0
100
AcDbLine
 10
60.47427800712036
 20
201.216124226235
 30
0.0
 11
60.47427800712036
 21
210.3161242262348
 31
0.0
  0
SOLID
  5
2627
330
2623
100
AcDbEntity
  8
1
  6
CONTINUOUS
 62
     0
100
AcDbTrace
 10
60.05761134045368
 20
201.216124226235
 30
0.0
 11
60.89094467378701
 21
201.216124226235
 31
0.0
 12
60.47427800712036
 22
198.7161242262348
 32
0.0
 13
60.47427800712036
 23
198.7161242262348
 33
0.0
  0
SOLID
  5
2628
330
2623
100
AcDbEntity
  8
1
  6
CONTINUOUS
 62
     0
100
AcDbTrace
 10
60.05761134045369
 20
210.3161242262348
 30
0.0
 11
60.89094467378702
 21
210.3161242262348
 31
0.0
 12
60.47427800712036
 22
212.8161242262349
 32
0.0
 13
60.47427800712036
 23
212.8161242262349
 33
0.0
  0
MTEXT
  5
2629
330
2623
100
AcDbEntity
  8
1
  6
CONTINUOUS
 62
     2
100
AcDbMText
 10
59.0685481299034
 20
205.7661242262347
 30
0.0
 40
2.0
 41
0.0
 71
     5
 72
     1
  1
\A1;14.1
  7
TSTYLE1
 11
0.0000000000000001
 21
1.0
 31
0.0
1001
ACAD
1000
MTEXTBEGIN
1070
    73
1070
     1
1070
    44
1040
1.0
1070
    74
1070
     0
1000
MTEXTEND
1000
MTEXTBEGIN
1070
    73
1070
     1
1070
    44
1040
1.0
1070
    74
1070
     0
1000
MTEXTEND
1000
MTEXTBEGIN
1070
    73
1070
     1
1070
    44
1040
1.0
1070
    74
1070
     0
1000
MTEXTEND
  0
POINT
  5
262A
330
2623
100
AcDbEntity
  8
DEFPOINTS
  6
CONTINUOUS
 62
     0
100
AcDbPoint
 10
77.28227800712033
 20
198.7161242262348
 30
0.0
  0
POINT
  5
262B
330
2623
100
AcDbEntity
  8
DEFPOINTS
  6
CONTINUOUS
 62
     0
100
AcDbPoint
 10
70.33227800712033
 20
212.8161242262349
 30
0.0
  0
POINT
  5
262C
330
2623
100
AcDbEntity
  8
DEFPOINTS
  6
CONTINUOUS
 62
     0
100
AcDbPoint
 10
60.47427800712036
 20
212.8161242262349
 30
0.0
  0
ENDBLK
  5
262E
330
2623
100
AcDbEntity
  8
0
100
AcDbBlockEnd
  0
BLOCK
  5
2639
330
262F
100
AcDbEntity
  8
0
100
AcDbBlockBegin
  2
*D25
 70
     1
 10
0.0
 20
0.0
 30
0.0
  3
*D25
  1

  0
LINE
  5
2630
330
262F
100
AcDbEntity
  8
1
  6
CONTINUOUS
 62
     0
100
AcDbLine
 10
85.0322780071203
 20
212.6161242262349
 30
0.0
 11
85.0322780071203
 21
220.2631242262349
 31
0.0
  0
LINE
  5
2631
330
262F
100
AcDbEntity
  8
1
  6
CONTINUOUS
 62
     0
100
AcDbLine
 10
69.53227800712032
 20
212.6161242262349
 30
0.0
 11
69.53227800712032
 21
220.2631242262349
 31
0.0
  0
LINE
  5
2632
330
262F
100
AcDbEntity
  8
1
  6
CONTINUOUS
 62
     0
100
AcDbLine
 10
82.5322780071203
 20
219.5961242262348
 30
0.0
 11
72.03227800712031
 21
219.5961242262348
 31
0.0
  0
SOLID
  5
2633
330
262F
100
AcDbEntity
  8
1
  6
CONTINUOUS
 62
     0
100
AcDbTrace
 10
82.5322780071203
 20
220.0127908929016
 30
0.0
 11
82.5322780071203
 21
219.1794575595681
 31
0.0
 12
85.0322780071203
 22
219.5961242262348
 32
0.0
 13
85.0322780071203
 23
219.5961242262348
 33
0.0
  0
SOLID
  5
2634
330
262F
100
AcDbEntity
  8
1
  6
CONTINUOUS
 62
     0
100
AcDbTrace
 10
72.03227800712031
 20
220.0127908929016
 30
0.0
 11
72.03227800712031
 21
219.1794575595681
 31
0.0
 12
69.53227800712032
 22
219.5961242262348
 32
0.0
 13
69.53227800712032
 23
219.5961242262348
 33
0.0
  0
MTEXT
  5
2635
330
262F
100
AcDbEntity
  8
1
  6
CONTINUOUS
 62
     2
100
AcDbMText
 10
77.28227800712033
 20
221.0257285918557
 30
0.0
 40
2.0
 41
0.0
 71
     5
 72
     1
  1
\A1;15.5
  7
TSTYLE1
1001
ACAD
1000
MTEXTBEGIN
1070
    73
1070
     1
1070
    44
1040
1.0
1070
    74
1070
     0
1000
MTEXTEND
1000
MTEXTBEGIN
1070
    73
1070
     1
1070
    44
1040
1.0
1070
    74
1070
     0
1000
MTEXTEND
1000
MTEXTBEGIN
1070
    73
1070
     1
1070
    44
1040
1.0
1070
    74
1070
     0
1000
MTEXTEND
  0
POINT
  5
2636
330
262F
100
AcDbEntity
  8
DEFPOINTS
  6
CONTINUOUS
 62
     0
100
AcDbPoint
 10
85.0322780071203
 20
212.0161242262347
 30
0.0
  0
POINT
  5
2637
330
262F
100
AcDbEntity
  8
DEFPOINTS
  6
CONTINUOUS
 62
     0
100
AcDbPoint
 10
69.53227800712032
 20
212.0161242262347
 30
0.0
  0
POINT
  5
2638
330
262F
100
AcDbEntity
  8
DEFPOINTS
  6
CONTINUOUS
 62
     0
100
AcDbPoint
 10
69.53227800712032
 20
219.5961242262348
 30
0.0
  0
ENDBLK
  5
263A
330
262F
100
AcDbEntity
  8
0
100
AcDbBlockEnd
  0
BLOCK
  5
2645
330
263B
100
AcDbEntity
  8
0
100
AcDbBlockBegin
  2
*D26
 70
     1
 10
0.0
 20
0.0
 30
0.0
  3
*D26
  1

  0
LINE
  5
263C
330
263B
100
AcDbEntity
  8
1
  6
CONTINUOUS
 62
     0
100
AcDbLine
 10
69.73227800712034
 20
202.3161242262349
 30
0.0
 11
64.80927800712035
 21
202.3161242262349
 31
0.0
  0
LINE
  5
263D
330
263B
100
AcDbEntity
  8
1
  6
CONTINUOUS
 62
     0
100
AcDbLine
 10
69.73227800712034
 20
212.8161242262349
 30
0.0
 11
64.80927800712035
 21
212.8161242262349
 31
0.0
  0
LINE
  5
263E
330
263B
100
AcDbEntity
  8
1
  6
CONTINUOUS
 62
     0
100
AcDbLine
 10
65.47627800712035
 20
204.8161242262349
 30
0.0
 11
65.47627800712035
 21
210.3161242262348
 31
0.0
  0
SOLID
  5
263F
330
263B
100
AcDbEntity
  8
1
  6
CONTINUOUS
 62
     0
100
AcDbTrace
 10
65.05961134045368
 20
204.8161242262349
 30
0.0
 11
65.89294467378703
 21
204.8161242262349
 31
0.0
 12
65.47627800712035
 22
202.3161242262349
 32
0.0
 13
65.47627800712035
 23
202.3161242262349
 33
0.0
  0
SOLID
  5
2640
330
263B
100
AcDbEntity
  8
1
  6
CONTINUOUS
 62
     0
100
AcDbTrace
 10
65.05961134045368
 20
210.3161242262348
 30
0.0
 11
65.89294467378703
 21
210.3161242262348
 31
0.0
 12
65.47627800712035
 22
212.8161242262349
 32
0.0
 13
65.47627800712035
 23
212.8161242262349
 33
0.0
  0
MTEXT
  5
2641
330
263B
100
AcDbEntity
  8
1
  6
CONTINUOUS
 62
     2
100
AcDbMText
 10
64.04667364149959
 20
207.5661242262349
 30
0.0
 40
2.0
 41
0.0
 71
     5
 72
     1
  1
\A1;10.5
  7
TSTYLE1
 11
0.0000000000000001
 21
1.0
 31
0.0
1001
ACAD
1000
MTEXTBEGIN
1070
    73
1070
     1
1070
    44
1040
1.0
1070
    74
1070
     0
1000
MTEXTEND
1000
MTEXTBEGIN
1070
    73
1070
     1
1070
    44
1040
1.0
1070
    74
1070
     0
1000
MTEXTEND
1000
MTEXTBEGIN
1070
    73
1070
     1
1070
    44
1040
1.0
1070
    74
1070
     0
1000
MTEXTEND
  0
POINT
  5
2642
330
263B
100
AcDbEntity
  8
DEFPOINTS
  6
CONTINUOUS
 62
     0
100
AcDbPoint
 10
70.33227800712033
 20
202.3161242262349
 30
0.0
  0
POINT
  5
2643
330
263B
100
AcDbEntity
  8
DEFPOINTS
  6
CONTINUOUS
 62
     0
100
AcDbPoint
 10
70.33227800712033
 20
212.8161242262349
 30
0.0
  0
POINT
  5
2644
330
263B
100
AcDbEntity
  8
DEFPOINTS
  6
CONTINUOUS
 62
     0
100
AcDbPoint
 10
65.47627800712035
 20
212.8161242262349
 30
0.0
  0
ENDBLK
  5
2646
330
263B
100
AcDbEntity
  8
0
100
AcDbBlockEnd
  0
BLOCK
  5
2651
330
2647
100
AcDbEntity
  8
0
100
AcDbBlockBegin
  2
*D27
 70
     1
 10
0.0
 20
0.0
 30
0.0
  3
*D27
  1

  0
LINE
  5
2648
330
2647
100
AcDbEntity
  8
1
  6
CONTINUOUS
 62
     0
100
AcDbLine
 10
100.1042780071202
 20
262.5231242262348
 30
0.0
 11
90.25327800712036
 21
262.5231242262348
 31
0.0
  0
LINE
  5
2649
330
2647
100
AcDbEntity
  8
1
  6
CONTINUOUS
 62
     0
100
AcDbLine
 10
94.90427800712032
 20
231.5231242262349
 30
0.0
 11
90.25327800712036
 21
231.5231242262349
 31
0.0
  0
LINE
  5
264A
330
2647
100
AcDbEntity
  8
1
  6
CONTINUOUS
 62
     0
100
AcDbLine
 10
90.92027800712036
 20
260.0231242262348
 30
0.0
 11
90.92027800712036
 21
234.0231242262349
 31
0.0
  0
SOLID
  5
264B
330
2647
100
AcDbEntity
  8
1
  6
CONTINUOUS
 62
     0
100
AcDbTrace
 10
90.50361134045369
 20
260.0231242262348
 30
0.0
 11
91.33694467378704
 21
260.0231242262348
 31
0.0
 12
90.92027800712036
 22
262.5231242262348
 32
0.0
 13
90.92027800712036
 23
262.5231242262348
 33
0.0
  0
SOLID
  5
264C
330
2647
100
AcDbEntity
  8
1
  6
CONTINUOUS
 62
     0
100
AcDbTrace
 10
90.50361134045369
 20
234.0231242262349
 30
0.0
 11
91.33694467378704
 21
234.0231242262349
 31
0.0
 12
90.92027800712036
 22
231.5231242262349
 32
0.0
 13
90.92027800712036
 23
231.5231242262349
 33
0.0
  0
MTEXT
  5
264D
330
2647
100
AcDbEntity
  8
1
  6
CONTINUOUS
 62
     2
100
AcDbMText
 10
89.48971866196343
 20
247.0231242262348
 30
0.0
 40
2.0
 41
0.0
 71
     5
 72
     1
  1
\A1;31
  7
TSTYLE1
 11
0.0000000000000001
 21
1.0
 31
0.0
1001
ACAD
1000
MTEXTBEGIN
1070
    73
1070
     1
1070
    44
1040
1.0
1070
    74
1070
     0
1000
MTEXTEND
1000
MTEXTBEGIN
1070
    73
1070
     1
1070
    44
1040
1.0
1070
    74
1070
     0
1000
MTEXTEND
1000
MTEXTBEGIN
1070
    73
1070
     1
1070
    44
1040
1.0
1070
    74
1070
     0
1000
MTEXTEND
  0
POINT
  5
264E
330
2647
100
AcDbEntity
  8
DEFPOINTS
  6
CONTINUOUS
 62
     0
100
AcDbPoint
 10
100.7042780071203
 20
262.5231242262348
 30
0.0
  0
POINT
  5
264F
330
2647
100
AcDbEntity
  8
DEFPOINTS
  6
CONTINUOUS
 62
     0
100
AcDbPoint
 10
95.5042780071203
 20
231.5231242262349
 30
0.0
  0
POINT
  5
2650
330
2647
100
AcDbEntity
  8
DEFPOINTS
  6
CONTINUOUS
 62
     0
100
AcDbPoint
 10
90.92027800712036
 20
231.5231242262349
 30
0.0
  0
ENDBLK
  5
2652
330
2647
100
AcDbEntity
  8
0
100
AcDbBlockEnd
  0
BLOCK
  5
265F
330
2653
100
AcDbEntity
  8
0
100
AcDbBlockBegin
  2
*D28
 70
     1
 10
0.0
 20
0.0
 30
0.0
  3
*D28
  1

  0
LINE
  5
2654
330
2653
100
AcDbEntity
  8
DIM
  6
CONTINUOUS
100
AcDbLine
 10
97.07927800712031
 20
231.5231242262349
 30
0.0
 11
92.89427768487191
 21
231.5231242262349
 31
0.0
  0
LINE
  5
2655
330
2653
100
AcDbEntity
  8
DIM
  6
CONTINUOUS
100
AcDbLine
 10
100.1542780071203
 20
226.5231242262348
 30
0.0
 11
92.89427768487191
 21
226.5231242262348
 31
0.0
  0
LINE
  5
2656
330
2653
100
AcDbEntity
  8
DIM
  6
CONTINUOUS
100
AcDbLine
 10
94.14427768487191
 20
234.0231242262349
 30
0.0
 11
94.14427768487191
 21
236.5231242262348
 31
0.0
  0
LINE
  5
2657
330
2653
100
AcDbEntity
  8
DIM
  6
CONTINUOUS
100
AcDbLine
 10
94.14427768487191
 20
224.0231242262348
 30
0.0
 11
94.14427768487188
 21
221.5231242262349
 31
0.0
  0
LINE
  5
2658
330
2653
100
AcDbEntity
  8
DIM
  6
CONTINUOUS
100
AcDbLine
 10
94.14427768487191
 20
231.5231242262349
 30
0.0
 11
94.14427768487191
 21
226.5231242262348
 31
0.0
  0
SOLID
  5
2659
330
2653
100
AcDbEntity
  8
DIM
  6
CONTINUOUS
100
AcDbTrace
 10
93.72761101820522
 20
234.0231242262349
 30
0.0
 11
94.56094435153856
 21
234.0231242262349
 31
0.0
 12
94.14427768487191
 22
231.5231242262349
 32
0.0
 13
94.14427768487191
 23
231.5231242262349
 33
0.0
  0
SOLID
  5
265A
330
2653
100
AcDbEntity
  8
DIM
  6
CONTINUOUS
100
AcDbTrace
 10
93.72761101820522
 20
224.0231242262348
 30
0.0
 11
94.56094435153856
 21
224.0231242262348
 31
0.0
 12
94.14427768487191
 22
226.5231242262348
 32
0.0
 13
94.14427768487191
 23
226.5231242262348
 33
0.0
  0
MTEXT
  5
265B
330
2653
100
AcDbEntity
  8
DIM
  6
CONTINUOUS
 62
     2
100
AcDbMText
 10
92.6039297994694
 20
229.023124226235
 30
0.0
 40
1.8
 41
0.0
 71
     5
 72
     1
  1
5
  7
FINDER
 11
0.0000000000000001
 21
1.0
 31
0.0
1001
ACAD
1000
MTEXTBEGIN
1070
    73
1070
     1
1070
    44
1040
1.0
1070
    74
1070
     0
1000
MTEXTEND
1000
MTEXTBEGIN
1070
    73
1070
     1
1070
    44
1040
1.0
1070
    74
1070
     0
1000
MTEXTEND
1000
MTEXTBEGIN
1070
    73
1070
     1
1070
    44
1040
1.0
1070
    74
1070
     0
1000
MTEXTEND
  0
POINT
  5
265C
330
2653
100
AcDbEntity
  8
DEFPOINTS
  6
CONTINUOUS
 62
     0
100
AcDbPoint
 10
99.0792780071203
 20
231.5231242262349
 30
0.0
  0
POINT
  5
265D
330
2653
100
AcDbEntity
  8
DEFPOINTS
  6
CONTINUOUS
 62
     0
100
AcDbPoint
 10
102.1542780071203
 20
226.5231242262348
 30
0.0
  0
POINT
  5
265E
330
2653
100
AcDbEntity
  8
DEFPOINTS
  6
CONTINUOUS
 62
     0
100
AcDbPoint
 10
94.14427768487191
 20
226.5231242262348
 30
0.0
  0
ENDBLK
  5
2660
330
2653
100
AcDbEntity
  8
0
100
AcDbBlockEnd
  0
BLOCK
  5
27EF
330
27E5
100
AcDbEntity
  8
0
100
AcDbBlockBegin
  2
*D29
 70
     1
 10
0.0
 20
0.0
 30
0.0
  3
*D29
  1

  0
LINE
  5
2893
330
27E5
100
AcDbEntity
  8
1
  6
CONTINUOUS
 62
     0
100
AcDbLine
 10
112.5774554221079
 20
193.8314708057242
 30
0.0
 11
102.7264554221077
 21
193.8314708057242
 31
0.0
  0
LINE
  5
2894
330
27E5
100
AcDbEntity
  8
1
  6
CONTINUOUS
 62
     0
100
AcDbLine
 10
107.3774554221079
 20
162.8314708057243
 30
0.0
 11
102.7264554221077
 21
162.8314708057243
 31
0.0
  0
LINE
  5
2895
330
27E5
100
AcDbEntity
  8
1
  6
CONTINUOUS
 62
     0
100
AcDbLine
 10
103.3934554221079
 20
191.3314708057241
 30
0.0
 11
103.3934554221079
 21
165.3314708057243
 31
0.0
  0
SOLID
  5
2896
330
27E5
100
AcDbEntity
  8
1
  6
CONTINUOUS
 62
     0
100
AcDbTrace
 10
102.9767887554413
 20
191.3314708057241
 30
0.0
 11
103.8101220887746
 21
191.3314708057241
 31
0.0
 12
103.3934554221079
 22
193.8314708057242
 32
0.0
 13
103.3934554221079
 23
193.8314708057242
 33
0.0
  0
SOLID
  5
2897
330
27E5
100
AcDbEntity
  8
1
  6
CONTINUOUS
 62
     0
100
AcDbTrace
 10
102.9767887554413
 20
165.3314708057243
 30
0.0
 11
103.8101220887746
 21
165.3314708057243
 31
0.0
 12
103.3934554221079
 22
162.8314708057243
 32
0.0
 13
103.3934554221079
 23
162.8314708057243
 33
0.0
  0
MTEXT
  5
2898
330
27E5
100
AcDbEntity
  8
1
  6
CONTINUOUS
 62
     2
100
AcDbMText
 10
101.962896076951
 20
178.3314708057243
 30
0.0
 40
2.0
 41
0.0
 71
     5
 72
     1
  1
\A1;31
  7
TSTYLE1
 11
0.0000000000000001
 21
1.0
 31
0.0
1001
ACAD
1000
MTEXTBEGIN
1070
    73
1070
     1
1070
    44
1040
1.0
1070
    74
1070
     0
1000
MTEXTEND
1000
MTEXTBEGIN
1070
    73
1070
     1
1070
    44
1040
1.0
1070
    74
1070
     0
1000
MTEXTEND
1000
MTEXTBEGIN
1070
    73
1070
     1
1070
    44
1040
1.0
1070
    74
1070
     0
1000
MTEXTEND
  0
POINT
  5
2899
330
27E5
100
AcDbEntity
  8
DEFPOINTS
  6
CONTINUOUS
 62
     0
100
AcDbPoint
 10
113.1774554221079
 20
193.8314708057242
 30
0.0
  0
POINT
  5
289A
330
27E5
100
AcDbEntity
  8
DEFPOINTS
  6
CONTINUOUS
 62
     0
100
AcDbPoint
 10
107.9774554221079
 20
162.8314708057243
 30
0.0
  0
POINT
  5
289B
330
27E5
100
AcDbEntity
  8
DEFPOINTS
  6
CONTINUOUS
 62
     0
100
AcDbPoint
 10
103.3934554221079
 20
162.8314708057243
 30
0.0
  0
ENDBLK
  5
27F0
330
27E5
100
AcDbEntity
  8
0
100
AcDbBlockEnd
  0
BLOCK
  5
27FB
330
27F1
100
AcDbEntity
  8
0
100
AcDbBlockBegin
  2
*D30
 70
     1
 10
0.0
 20
0.0
 30
0.0
  3
*D30
  1

  0
LINE
  5
2A43
330
27F1
100
AcDbEntity
  8
DIM
  6
CONTINUOUS
 62
     0
100
AcDbLine
 10
83.54201852859819
 20
135.2361172125355
 30
0.0
 11
83.54201852859819
 21
142.8831172125355
 31
0.0
  0
LINE
  5
2A44
330
27F1
100
AcDbEntity
  8
DIM
  6
CONTINUOUS
 62
     0
100
AcDbLine
 10
68.04201852859819
 20
135.2361172125355
 30
0.0
 11
68.04201852859819
 21
142.8831172125355
 31
0.0
  0
LINE
  5
2A45
330
27F1
100
AcDbEntity
  8
DIM
  6
CONTINUOUS
 62
     0
100
AcDbLine
 10
81.04201852859819
 20
142.2161172125354
 30
0.0
 11
70.54201852859819
 21
142.2161172125354
 31
0.0
  0
SOLID
  5
2A46
330
27F1
100
AcDbEntity
  8
DIM
  6
CONTINUOUS
 62
     0
100
AcDbTrace
 10
81.04201852859819
 20
142.6327838792021
 30
0.0
 11
81.04201852859819
 21
141.7994505458688
 31
0.0
 12
83.54201852859819
 22
142.2161172125354
 32
0.0
 13
83.54201852859819
 23
142.2161172125354
 33
0.0
  0
SOLID
  5
2A47
330
27F1
100
AcDbEntity
  8
DIM
  6
CONTINUOUS
 62
     0
100
AcDbTrace
 10
70.54201852859819
 20
142.6327838792021
 30
0.0
 11
70.54201852859819
 21
141.7994505458688
 31
0.0
 12
68.04201852859819
 22
142.2161172125354
 32
0.0
 13
68.04201852859819
 23
142.2161172125354
 33
0.0
  0
MTEXT
  5
2A48
330
27F1
100
AcDbEntity
  8
DIM
  6
CONTINUOUS
 62
     2
100
AcDbMText
 10
75.79201852859819
 20
143.6457215781562
 30
0.0
 40
2.0
 41
0.0
 71
     5
 72
     1
  1
\A1;15.5
  7
TSTYLE1
1001
ACAD
1000
MTEXTBEGIN
1070
    73
1070
     1
1070
    44
1040
1.0
1070
    74
1070
     0
1000
MTEXTEND
  0
POINT
  5
2A49
330
27F1
100
AcDbEntity
  8
DEFPOINTS
  6
CONTINUOUS
 62
     0
100
AcDbPoint
 10
83.54201852859819
 20
134.6361172125355
 30
0.0
  0
POINT
  5
2A4A
330
27F1
100
AcDbEntity
  8
DEFPOINTS
  6
CONTINUOUS
 62
     0
100
AcDbPoint
 10
68.04201852859819
 20
134.6361172125355
 30
0.0
  0
POINT
  5
2A4B
330
27F1
100
AcDbEntity
  8
DEFPOINTS
  6
CONTINUOUS
 62
     0
100
AcDbPoint
 10
68.04201852859819
 20
142.2161172125354
 30
0.0
  0
ENDBLK
  5
27FC
330
27F1
100
AcDbEntity
  8
0
100
AcDbBlockEnd
  0
BLOCK
  5
2807
330
27FD
100
AcDbEntity
  8
0
100
AcDbBlockBegin
  2
*D31
 70
     1
 10
0.0
 20
0.0
 30
0.0
  3
*D31
  1

  0
LINE
  5
2A4C
330
27FD
100
AcDbEntity
  8
DIM
  6
CONTINUOUS
 62
     0
100
AcDbLine
 10
75.19201852859819
 20
121.3361172125356
 30
0.0
 11
58.31701852859819
 21
121.3361172125356
 31
0.0
  0
LINE
  5
2A4D
330
27FD
100
AcDbEntity
  8
DIM
  6
CONTINUOUS
 62
     0
100
AcDbLine
 10
68.24201852859822
 20
135.4361172125355
 30
0.0
 11
58.31701852859819
 21
135.4361172125355
 31
0.0
  0
LINE
  5
2A4E
330
27FD
100
AcDbEntity
  8
DIM
  6
CONTINUOUS
 62
     0
100
AcDbLine
 10
58.98401852859819
 20
123.8361172125356
 30
0.0
 11
58.98401852859819
 21
132.9361172125355
 31
0.0
  0
SOLID
  5
2A4F
330
27FD
100
AcDbEntity
  8
DIM
  6
CONTINUOUS
 62
     0
100
AcDbTrace
 10
58.56735186193153
 20
123.8361172125356
 30
0.0
 11
59.40068519526486
 21
123.8361172125356
 31
0.0
 12
58.98401852859819
 22
121.3361172125356
 32
0.0
 13
58.98401852859819
 23
121.3361172125356
 33
0.0
  0
SOLID
  5
2A50
330
27FD
100
AcDbEntity
  8
DIM
  6
CONTINUOUS
 62
     0
100
AcDbTrace
 10
58.56735186193153
 20
132.9361172125355
 30
0.0
 11
59.40068519526486
 21
132.9361172125355
 31
0.0
 12
58.98401852859819
 22
135.4361172125355
 32
0.0
 13
58.98401852859819
 23
135.4361172125355
 33
0.0
  0
MTEXT
  5
2A51
330
27FD
100
AcDbEntity
  8
DIM
  6
CONTINUOUS
 62
     2
100
AcDbMText
 10
57.57828865138126
 20
128.3861172125355
 30
0.0
 40
2.0
 41
0.0
 71
     5
 72
     1
  1
\A1;14.1
  7
TSTYLE1
 11
0.0000000000000001
 21
1.0
 31
0.0
1001
ACAD
1000
MTEXTBEGIN
1070
    73
1070
     1
1070
    44
1040
1.0
1070
    74
1070
     0
1000
MTEXTEND
  0
POINT
  5
2A52
330
27FD
100
AcDbEntity
  8
DEFPOINTS
  6
CONTINUOUS
 62
     0
100
AcDbPoint
 10
75.79201852859819
 20
121.3361172125356
 30
0.0
  0
POINT
  5
2A53
330
27FD
100
AcDbEntity
  8
DEFPOINTS
  6
CONTINUOUS
 62
     0
100
AcDbPoint
 10
68.84201852859821
 20
135.4361172125355
 30
0.0
  0
POINT
  5
2A54
330
27FD
100
AcDbEntity
  8
DEFPOINTS
  6
CONTINUOUS
 62
     0
100
AcDbPoint
 10
58.98401852859819
 20
135.4361172125355
 30
0.0
  0
ENDBLK
  5
2808
330
27FD
100
AcDbEntity
  8
0
100
AcDbBlockEnd
  0
BLOCK
  5
2813
330
2809
100
AcDbEntity
  8
0
100
AcDbBlockBegin
  2
*D32
 70
     1
 10
0.0
 20
0.0
 30
0.0
  3
*D32
  1

  0
LINE
  5
2A55
330
2809
100
AcDbEntity
  8
DIM
  6
CONTINUOUS
 62
     0
100
AcDbLine
 10
68.24201852859822
 20
124.9361172125355
 30
0.0
 11
63.31901852859821
 21
124.9361172125355
 31
0.0
  0
LINE
  5
2A56
330
2809
100
AcDbEntity
  8
DIM
  6
CONTINUOUS
 62
     0
100
AcDbLine
 10
68.24201852859822
 20
135.4361172125355
 30
0.0
 11
63.31901852859821
 21
135.4361172125355
 31
0.0
  0
LINE
  5
2A57
330
2809
100
AcDbEntity
  8
DIM
  6
CONTINUOUS
 62
     0
100
AcDbLine
 10
63.98601852859821
 20
127.4361172125354
 30
0.0
 11
63.98601852859821
 21
132.9361172125355
 31
0.0
  0
SOLID
  5
2A58
330
2809
100
AcDbEntity
  8
DIM
  6
CONTINUOUS
 62
     0
100
AcDbTrace
 10
63.56935186193155
 20
127.4361172125354
 30
0.0
 11
64.40268519526488
 21
127.4361172125354
 31
0.0
 12
63.98601852859821
 22
124.9361172125355
 32
0.0
 13
63.98601852859821
 23
124.9361172125355
 33
0.0
  0
SOLID
  5
2A59
330
2809
100
AcDbEntity
  8
DIM
  6
CONTINUOUS
 62
     0
100
AcDbTrace
 10
63.56935186193155
 20
132.9361172125355
 30
0.0
 11
64.40268519526488
 21
132.9361172125354
 31
0.0
 12
63.98601852859821
 22
135.4361172125355
 32
0.0
 13
63.98601852859821
 23
135.4361172125355
 33
0.0
  0
MTEXT
  5
2A5A
330
2809
100
AcDbEntity
  8
DIM
  6
CONTINUOUS
 62
     2
100
AcDbMText
 10
62.55641416297745
 20
130.1861172125355
 30
0.0
 40
2.0
 41
0.0
 71
     5
 72
     1
  1
\A1;10.5
  7
TSTYLE1
 11
0.0000000000000001
 21
1.0
 31
0.0
1001
ACAD
1000
MTEXTBEGIN
1070
    73
1070
     1
1070
    44
1040
1.0
1070
    74
1070
     0
1000
MTEXTEND
  0
POINT
  5
2A5B
330
2809
100
AcDbEntity
  8
DEFPOINTS
  6
CONTINUOUS
 62
     0
100
AcDbPoint
 10
68.84201852859821
 20
124.9361172125355
 30
0.0
  0
POINT
  5
2A5C
330
2809
100
AcDbEntity
  8
DEFPOINTS
  6
CONTINUOUS
 62
     0
100
AcDbPoint
 10
68.84201852859821
 20
135.4361172125355
 30
0.0
  0
POINT
  5
2A5D
330
2809
100
AcDbEntity
  8
DEFPOINTS
  6
CONTINUOUS
 62
     0
100
AcDbPoint
 10
63.98601852859821
 20
135.4361172125355
 30
0.0
  0
ENDBLK
  5
2814
330
2809
100
AcDbEntity
  8
0
100
AcDbBlockEnd
  0
BLOCK
  5
2821
330
2815
100
AcDbEntity
  8
0
100
AcDbBlockBegin
  2
*D33
 70
     1
 10
0.0
 20
0.0
 30
0.0
  3
*D33
  1

  0
LINE
  5
2852
330
2815
100
AcDbEntity
  8
DIM
  6
CONTINUOUS
100
AcDbLine
 10
102.5127650124862
 20
150.407684817881
 30
0.0
 11
98.32776469023793
 21
150.407684817881
 31
0.0
  0
LINE
  5
2853
330
2815
100
AcDbEntity
  8
DIM
  6
CONTINUOUS
100
AcDbLine
 10
105.5877650124863
 20
145.4076848178808
 30
0.0
 11
98.32776469023793
 21
145.4076848178808
 31
0.0
  0
LINE
  5
2854
330
2815
100
AcDbEntity
  8
DIM
  6
CONTINUOUS
100
AcDbLine
 10
99.57776469023793
 20
152.907684817881
 30
0.0
 11
99.57776469023793
 21
155.407684817881
 31
0.0
  0
LINE
  5
2855
330
2815
100
AcDbEntity
  8
DIM
  6
CONTINUOUS
100
AcDbLine
 10
99.57776469023793
 20
142.907684817881
 30
0.0
 11
99.57776469023793
 21
140.407684817881
 31
0.0
  0
LINE
  5
2856
330
2815
100
AcDbEntity
  8
DIM
  6
CONTINUOUS
100
AcDbLine
 10
99.57776469023793
 20
150.407684817881
 30
0.0
 11
99.57776469023793
 21
145.4076848178808
 31
0.0
  0
SOLID
  5
2857
330
2815
100
AcDbEntity
  8
DIM
  6
CONTINUOUS
100
AcDbTrace
 10
99.16109802357128
 20
152.907684817881
 30
0.0
 11
99.9944313569046
 21
152.907684817881
 31
0.0
 12
99.57776469023793
 22
150.407684817881
 32
0.0
 13
99.57776469023793
 23
150.407684817881
 33
0.0
  0
SOLID
  5
2858
330
2815
100
AcDbEntity
  8
DIM
  6
CONTINUOUS
100
AcDbTrace
 10
99.16109802357128
 20
142.907684817881
 30
0.0
 11
99.9944313569046
 21
142.907684817881
 31
0.0
 12
99.57776469023793
 22
145.4076848178808
 32
0.0
 13
99.57776469023793
 23
145.4076848178808
 33
0.0
  0
MTEXT
  5
2859
330
2815
100
AcDbEntity
  8
DIM
  6
CONTINUOUS
 62
     2
100
AcDbMText
 10
98.03741680483549
 20
147.907684817881
 30
0.0
 40
1.8
 41
0.0
 71
     5
 72
     1
  1
5
  7
FINDER
 11
0.0000000000000001
 21
1.0
 31
0.0
1001
ACAD
1000
MTEXTBEGIN
1070
    73
1070
     1
1070
    44
1040
1.0
1070
    74
1070
     0
1000
MTEXTEND
1000
MTEXTBEGIN
1070
    73
1070
     1
1070
    44
1040
1.0
1070
    74
1070
     0
1000
MTEXTEND
1000
MTEXTBEGIN
1070
    73
1070
     1
1070
    44
1040
1.0
1070
    74
1070
     0
1000
MTEXTEND
  0
POINT
  5
285A
330
2815
100
AcDbEntity
  8
DEFPOINTS
  6
CONTINUOUS
 62
     0
100
AcDbPoint
 10
104.5127650124862
 20
150.407684817881
 30
0.0
  0
POINT
  5
285B
330
2815
100
AcDbEntity
  8
DEFPOINTS
  6
CONTINUOUS
 62
     0
100
AcDbPoint
 10
107.5877650124863
 20
145.4076848178808
 30
0.0
  0
POINT
  5
285C
330
2815
100
AcDbEntity
  8
DEFPOINTS
  6
CONTINUOUS
 62
     0
100
AcDbPoint
 10
99.57776469023793
 20
145.4076848178808
 30
0.0
  0
ENDBLK
  5
2822
330
2815
100
AcDbEntity
  8
0
100
AcDbBlockEnd
  0
BLOCK
  5
29E8
330
29DE
100
AcDbEntity
  8
0
100
AcDbBlockBegin
  2
*D36
 70
     1
 10
0.0
 20
0.0
 30
0.0
  3
*D36
  1

  0
LINE
  5
2A1F
330
29DE
100
AcDbEntity
  8
DIM
  6
CONTINUOUS
100
AcDbLine
 10
73.79201852859821
 20
193.8894708057242
 30
0.0
 11
59.20952490597279
 21
193.8894708057242
 31
0.0
  0
LINE
  5
2A20
330
29DE
100
AcDbEntity
  8
DIM
  6
CONTINUOUS
100
AcDbLine
 10
66.04201852859819
 20
162.489470805724
 30
0.0
 11
59.20952490597278
 21
162.4894708057241
 31
0.0
  0
LINE
  5
2A21
330
29DE
100
AcDbEntity
  8
DIM
  6
CONTINUOUS
100
AcDbLine
 10
60.45952490597279
 20
191.3894708057243
 30
0.0
 11
60.45952490597278
 21
164.9894708057241
 31
0.0
  0
SOLID
  5
2A22
330
29DE
100
AcDbEntity
  8
DIM
  6
CONTINUOUS
100
AcDbTrace
 10
60.04285823930612
 20
191.3894708057243
 30
0.0
 11
60.87619157263945
 21
191.3894708057243
 31
0.0
 12
60.45952490597279
 22
193.8894708057242
 32
0.0
 13
60.45952490597279
 23
193.8894708057242
 33
0.0
  0
SOLID
  5
2A23
330
29DE
100
AcDbEntity
  8
DIM
  6
CONTINUOUS
100
AcDbTrace
 10
60.04285823930612
 20
164.9894708057241
 30
0.0
 11
60.87619157263944
 21
164.9894708057241
 31
0.0
 12
60.45952490597278
 22
162.4894708057241
 32
0.0
 13
60.45952490597278
 23
162.4894708057241
 33
0.0
  0
MTEXT
  5
2A24
330
29DE
100
AcDbEntity
  8
DIM
  6
CONTINUOUS
 62
     2
100
AcDbMText
 10
58.91487961265761
 20
178.1894708057242
 30
0.0
 40
1.8
 41
0.0
 71
     5
 72
     1
  1
31.4
  7
FINDER
 11
0.0000000000000001
 21
1.0
 31
0.0
1001
ACAD
1000
MTEXTBEGIN
1070
    73
1070
     1
1070
    44
1040
1.0
1070
    74
1070
     0
1000
MTEXTEND
  0
POINT
  5
2A25
330
29DE
100
AcDbEntity
  8
DEFPOINTS
  6
CONTINUOUS
 62
     0
100
AcDbPoint
 10
75.79201852859821
 20
193.8894708057242
 30
0.0
  0
POINT
  5
2A26
330
29DE
100
AcDbEntity
  8
DEFPOINTS
  6
CONTINUOUS
 62
     0
100
AcDbPoint
 10
68.04201852859819
 20
162.489470805724
 30
0.0
  0
POINT
  5
2A27
330
29DE
100
AcDbEntity
  8
DEFPOINTS
  6
CONTINUOUS
 62
     0
100
AcDbPoint
 10
60.45952490597278
 20
162.4894708057241
 30
0.0
  0
ENDBLK
  5
29E9
330
29DE
100
AcDbEntity
  8
0
100
AcDbBlockEnd
  0
BLOCK
  5
29F7
330
29EB
100
AcDbEntity
  8
0
100
AcDbBlockBegin
  2
*D37
 70
     1
 10
0.0
 20
0.0
 30
0.0
  3
*D37
  1

  0
LINE
  5
2AEA
330
29EB
100
AcDbEntity
  8
DIM
  6
CONTINUOUS
100
AcDbLine
 10
66.04201852859819
 20
162.489470805724
 30
0.0
 11
63.68503496909511
 21
162.4894708057241
 31
0.0
  0
LINE
  5
2AEB
330
29EB
100
AcDbEntity
  8
DIM
  6
CONTINUOUS
100
AcDbLine
 10
68.32011452859816
 20
156.989470805724
 30
0.0
 11
63.68503496909511
 21
156.9894708057241
 31
0.0
  0
LINE
  5
2AEC
330
29EB
100
AcDbEntity
  8
DIM
  6
CONTINUOUS
100
AcDbLine
 10
64.93503496909511
 20
164.9894708057241
 30
0.0
 11
64.93503496909511
 21
167.489470805724
 31
0.0
  0
LINE
  5
2AED
330
29EB
100
AcDbEntity
  8
DIM
  6
CONTINUOUS
100
AcDbLine
 10
64.9350349690951
 20
154.4894708057241
 30
0.0
 11
64.9350349690951
 21
151.989470805724
 31
0.0
  0
LINE
  5
2AEE
330
29EB
100
AcDbEntity
  8
DIM
  6
CONTINUOUS
100
AcDbLine
 10
64.93503496909511
 20
162.489470805724
 30
0.0
 11
64.9350349690951
 21
156.989470805724
 31
0.0
  0
SOLID
  5
2AEF
330
29EB
100
AcDbEntity
  8
DIM
  6
CONTINUOUS
100
AcDbTrace
 10
64.51836830242844
 20
164.9894708057241
 30
0.0
 11
65.35170163576179
 21
164.9894708057241
 31
0.0
 12
64.93503496909511
 22
162.489470805724
 32
0.0
 13
64.93503496909511
 23
162.489470805724
 33
0.0
  0
SOLID
  5
2AF0
330
29EB
100
AcDbEntity
  8
DIM
  6
CONTINUOUS
100
AcDbTrace
 10
64.51836830242843
 20
154.4894708057241
 30
0.0
 11
65.35170163576177
 21
154.4894708057241
 31
0.0
 12
64.9350349690951
 22
156.989470805724
 32
0.0
 13
64.9350349690951
 23
156.989470805724
 33
0.0
  0
MTEXT
  5
2AF1
330
29EB
100
AcDbEntity
  8
DIM
  6
CONTINUOUS
 62
     2
100
AcDbMText
 10
63.39468708369262
 20
159.7394708057241
 30
0.0
 40
1.8
 41
0.0
 71
     5
 72
     1
  1
5.4
  7
FINDER
 11
0.0000000000000001
 21
1.0
 31
0.0
1001
ACAD
1000
MTEXTBEGIN
1070
    73
1070
     1
1070
    44
1040
1.0
1070
    74
1070
     0
1000
MTEXTEND
  0
POINT
  5
2AF2
330
29EB
100
AcDbEntity
  8
DEFPOINTS
  6
CONTINUOUS
 62
     0
100
AcDbPoint
 10
68.04201852859819
 20
162.489470805724
 30
0.0
  0
POINT
  5
2AF3
330
29EB
100
AcDbEntity
  8
DEFPOINTS
  6
CONTINUOUS
 62
     0
100
AcDbPoint
 10
70.32011452859816
 20
156.989470805724
 30
0.0
  0
POINT
  5
2AF4
330
29EB
100
AcDbEntity
  8
DEFPOINTS
  6
CONTINUOUS
 62
     0
100
AcDbPoint
 10
64.9350349690951
 20
156.989470805724
 30
0.0
  0
ENDBLK
  5
29F8
330
29EB
100
AcDbEntity
  8
0
100
AcDbBlockEnd
  0
ENDSEC
  0
SECTION
  2
ENTITIES
  0
LWPOLYLINE
  5
1E
330
2
100
AcDbEntity
  8
CARTOUCHE
  6
CONTINUOUS
 62
     7
100
AcDbPolyline
 90
        5
 70
   129
 43
0.0
 10
205.000037
 20
292.0001829999998
 10
205.000037
 20
5.000182999999998
 10
5.0
 20
5.0
 10
5.0
 20
292.0
 10
204.999774
 20
292.0001829999998
  0
LINE
  5
20
330
2
100
AcDbEntity
  8
CARTOUCHE
  6
CONTINUOUS
 62
     7
100
AcDbLine
 10
205.000037
 20
36.845156
 30
0.0
 11
5.0
 21
36.84546199999999
 31
0.0
  0
LINE
  5
21
330
2
100
AcDbEntity
  8
CARTOUCHE
  6
CONTINUOUS
 62
     7
100
AcDbLine
 10
205.000008
 20
20.002808
 30
0.0
 11
49.999973
 21
20.00304499999999
 31
0.0
  0
LINE
  5
22
330
2
100
AcDbEntity
  8
CARTOUCHE
  6
CONTINUOUS
 62
     7
100
AcDbLine
 10
205.000037
 20
10.000793
 30
0.0
 11
5.0
 21
10.00106799999999
 31
0.0
  0
INSERT
  5
26
330
2
100
AcDbEntity
  8
CARTOUCHE
  6
CONTINUOUS
 62
     4
100
AcDbBlockReference
  2
*X5
 10
0.0
 20
0.0
 30
0.0
1001
ACAD
1000
HATCH
1002
{
1070
    19
1000
ANSI31
1040
0.062992
1040
0.0
1000
R14_HATCH_DATA
1000
26
1011
1.0
1021
0.0
1031
0.0
1011
0.0
1021
1.0
1031
0.0
1011
0.0
1021
0.0
1031
1.0
1040
0.0
1010
0.0
1020
0.0
1030
1.0
1000
ANSI31
1070
     0
1070
     0
1071
        1
1071
        1
1071
      165
1070
     1
1040
39.05107299999999
1040
22.244444
1040
39.15412299999999
1040
22.244444
1070
     1
1040
39.15412299999999
1040
22.244444
1040
42.20692299999997
1040
22.25614399999999
1070
     1
1040
42.20692299999997
1040
22.25614399999999
1040
42.232378
1040
22.36584699999999
1070
     1
1040
42.232378
1040
22.36584699999999
1040
42.245048
1040
22.449462
1070
     1
1040
42.245048
1040
22.449462
1040
42.251874
1040
22.53370299999999
1070
     1
1040
42.251874
1040
22.53370299999999
1040
42.25173499999999
1040
22.646969
1070
     1
1040
42.25173499999999
1040
22.646969
1040
42.23470999999999
1040
22.81609599999999
1070
     1
1040
42.23470999999999
1040
22.81609599999999
1040
42.208465
1040
22.956213
1070
     1
1040
42.208465
1040
22.956213
1040
42.17357899999997
1040
23.09436799999999
1070
     1
1040
42.17357899999997
1040
23.09436799999999
1040
42.131795
1040
23.229146
1070
     1
1040
42.131795
1040
23.229146
1040
42.08234199999997
1040
23.36142099999999
1070
     1
1040
42.08234199999997
1040
23.36142099999999
1040
42.03686199999999
1040
23.464716
1070
     1
1040
42.03686199999999
1040
23.464716
1040
41.98586099999999
1040
23.56553499999999
1070
     1
1040
41.98586099999999
1040
23.56553499999999
1040
41.92928
1040
23.663323
1070
     1
1040
41.92928
1040
23.663323
1040
41.867061
1040
23.757527
1070
     1
1040
41.867061
1040
23.757527
1040
41.799145
1040
23.847595
1070
     1
1040
41.799145
1040
23.847595
1040
41.72552399999999
1040
23.93313
1070
     1
1040
41.72552399999999
1040
23.93313
1040
41.646719
1040
24.01400399999999
1070
     1
1040
41.646719
1040
24.01400399999999
1040
41.563309
1040
24.090255
1070
     1
1040
41.563309
1040
24.090255
1040
41.384996
1040
24.229026
1070
     1
1040
41.384996
1040
24.229026
1040
41.266986
1040
24.306605
1070
     1
1040
41.266986
1040
24.306605
1040
41.14444999999999
1040
24.376442
1070
     1
1040
41.14444999999999
1040
24.376442
1040
41.017719
1040
24.437986
1070
     1
1040
41.017719
1040
24.437986
1040
40.887396
1040
24.49164899999999
1070
     1
1040
40.887396
1040
24.49164899999999
1040
40.618872
1040
24.578734
1070
     1
1040
40.618872
1040
24.578734
1040
40.344652
1040
24.645649
1070
     1
1040
40.344652
1040
24.645649
1040
40.06700499999999
1040
24.69362999999999
1070
     1
1040
40.06700499999999
1040
24.69362999999999
1040
39.786778
1040
24.723515
1070
     1
1040
39.786778
1040
24.723515
1040
39.22285499999999
1040
24.73587399999999
1070
     1
1040
39.22285499999999
1040
24.73587399999999
1040
38.660586
1040
24.695795
1070
     1
1040
38.660586
1040
24.695795
1040
38.3823
1040
24.651139
1070
     1
1040
38.3823
1040
24.651139
1040
38.107283
1040
24.5883
1070
     1
1040
38.107283
1040
24.5883
1040
37.890593
1040
24.52408
1070
     1
1040
37.890593
1040
24.52408
1040
37.731586
1040
24.46569699999999
1070
     1
1040
37.731586
1040
24.46569699999999
1040
37.57690999999999
1040
24.396625
1070
     1
1040
37.57690999999999
1040
24.396625
1040
37.477006
1040
24.343979
1070
     1
1040
37.477006
1040
24.343979
1040
37.38006699999999
1040
24.285863
1070
     1
1040
37.38006699999999
1040
24.285863
1040
37.286613
1040
24.222306
1070
     1
1040
37.286613
1040
24.222306
1040
37.197165
1040
24.15334
1070
     1
1040
37.197165
1040
24.15334
1040
37.112243
1040
24.078995
1070
     1
1040
37.112243
1040
24.078995
1040
37.03231999999999
1040
23.999414
1070
     1
1040
37.03231999999999
1040
23.999414
1040
36.957469
1040
23.91497399999999
1070
     1
1040
36.957469
1040
23.91497399999999
1040
36.887723
1040
23.826164
1070
     1
1040
36.887723
1040
23.826164
1040
36.823113
1040
23.733469
1070
     1
1040
36.823113
1040
23.733469
1040
36.763669
1040
23.637375
1070
     1
1040
36.763669
1040
23.637375
1040
36.660491
1040
23.436489
1070
     1
1040
36.660491
1040
23.436489
1040
36.61706099999999
1040
23.332299
1070
     1
1040
36.61706099999999
1040
23.332299
1040
36.57925699999999
1040
23.225943
1070
     1
1040
36.57925699999999
1040
23.225943
1040
36.547222
1040
23.11767399999999
1070
     1
1040
36.547222
1040
23.11767399999999
1040
36.521104
1040
23.00778999999999
1070
     1
1040
36.521104
1040
23.00778999999999
1040
36.501051
1040
22.896613
1070
     1
1040
36.501051
1040
22.896613
1040
36.487223
1040
22.784512
1070
     1
1040
36.487223
1040
22.784512
1040
36.479778
1040
22.67185599999999
1070
     1
1040
36.479778
1040
22.67185599999999
1040
36.478876
1040
22.559014
1070
     1
1040
36.478876
1040
22.559014
1040
36.48475799999999
1040
22.446072
1070
     1
1040
36.48475799999999
1040
22.446072
1040
36.507303
1040
22.27824299999999
1070
     1
1040
36.507303
1040
22.27824299999999
1040
36.531842
1040
22.168363
1070
     1
1040
36.531842
1040
22.168363
1040
36.580661
1040
22.006354
1070
     1
1040
36.580661
1040
22.006354
1040
36.663176
1040
21.796051
1070
     1
1040
36.663176
1040
21.796051
1040
36.738102
1040
21.64424299999998
1070
     1
1040
36.738102
1040
21.64424299999998
1040
36.824876
1040
21.499285
1070
     1
1040
36.824876
1040
21.499285
1040
36.906565
1040
21.38422
1070
     1
1040
36.906565
1040
21.38422
1040
36.995075
1040
21.274114
1070
     1
1040
36.995075
1040
21.274114
1040
37.069976
1040
21.189232
1070
     1
1040
37.069976
1040
21.189232
1040
37.19090599999999
1040
21.070408
1070
     1
1040
37.19090599999999
1040
21.070408
1040
37.27814
1040
20.999373
1070
     1
1040
37.27814
1040
20.999373
1040
37.418207
1040
20.90511499999998
1070
     1
1040
37.418207
1040
20.90511499999998
1040
37.541992
1040
20.836757
1070
     1
1040
37.541992
1040
20.836757
1040
37.669631
1040
20.775673
1070
     1
1040
37.669631
1040
20.775673
1040
37.878008
1040
20.688457
1070
     1
1040
37.878008
1040
20.688457
1040
38.199606
1040
20.58288099999999
1070
     1
1040
38.199606
1040
20.58288099999999
1040
38.419015
1040
20.531338
1070
     1
1040
38.419015
1040
20.531338
1040
38.753153
1040
20.477838
1070
     1
1040
38.753153
1040
20.477838
1040
39.03387999999999
1040
20.450243
1070
     1
1040
39.03387999999999
1040
20.450243
1040
39.315482
1040
20.43816199999997
1070
     1
1040
39.315482
1040
20.43816199999997
1040
39.878324
1040
20.461635
1070
     1
1040
39.878324
1040
20.461635
1040
40.15919199999999
1040
20.49446799999997
1070
     1
1040
40.15919199999999
1040
20.49446799999997
1040
40.437804
1040
20.542235
1070
     1
1040
40.437804
1040
20.542235
1040
40.71211799999999
1040
20.608344
1070
     1
1040
40.71211799999999
1040
20.608344
1040
40.97822199999997
1040
20.69993399999999
1070
     1
1040
40.97822199999997
1040
20.69993399999999
1040
41.235564
1040
20.81532399999999
1070
     1
1040
41.235564
1040
20.81532399999999
1040
41.361299
1040
20.87918599999997
1070
     1
1040
41.361299
1040
20.87918599999997
1040
41.48297999999999
1040
20.950245
1070
     1
1040
41.48297999999999
1040
20.950245
1040
41.57561799999998
1040
21.014782
1070
     1
1040
41.57561799999998
1040
21.014782
1040
41.641621
1040
21.067895
1070
     1
1040
41.641621
1040
21.067895
1040
41.704176
1040
21.124947
1070
     1
1040
41.704176
1040
21.124947
1040
41.78170999999998
1040
21.20681499999998
1070
     1
1040
41.78170999999998
1040
21.20681499999998
1040
41.886125
1040
21.340089
1070
     1
1040
41.886125
1040
21.340089
1040
41.948068
1040
21.43459299999999
1070
     1
1040
41.948068
1040
21.43459299999999
1040
41.989546
1040
21.50838599999999
1070
     1
1040
41.989546
1040
21.50838599999999
1040
42.02581
1040
21.58482799999999
1070
     1
1040
42.02581
1040
21.58482799999999
1040
42.064953
1040
21.690806
1070
     1
1040
42.064953
1040
21.690806
1040
42.08734999999999
1040
21.77259999999999
1070
     1
1040
42.08734999999999
1040
21.77259999999999
1040
42.10387299999999
1040
21.855644
1070
     1
1040
42.10387299999999
1040
21.855644
1040
40.34302299999999
1040
21.855644
1070
     1
1040
40.34302299999999
1040
21.855644
1040
40.23475999999997
1040
21.775139
1070
     1
1040
40.23475999999997
1040
21.775139
1040
40.14934199999999
1040
21.72065499999999
1070
     1
1040
40.14934199999999
1040
21.72065499999999
1040
40.060776
1040
21.671433
1070
     1
1040
40.060776
1040
21.671433
1040
39.98475799999999
1040
21.634773
1070
     1
1040
39.98475799999999
1040
21.634773
1040
39.906576
1040
21.603307
1070
     1
1040
39.906576
1040
21.603307
1040
39.842277
1040
21.58263499999999
1070
     1
1040
39.842277
1040
21.58263499999999
1040
39.74365099999999
1040
21.559088
1070
     1
1040
39.74365099999999
1040
21.559088
1040
39.609337
1040
21.540536
1070
     1
1040
39.609337
1040
21.540536
1040
39.507639
1040
21.53565599999998
1070
     1
1040
39.507639
1040
21.53565599999998
1040
39.405809
1040
21.53798099999999
1070
     1
1040
39.405809
1040
21.53798099999999
1040
39.271392
1040
21.551496
1070
     1
1040
39.271392
1040
21.551496
1040
39.17168099999999
1040
21.569188
1070
     1
1040
39.17168099999999
1040
21.569188
1040
39.073329
1040
21.593186
1070
     1
1040
39.073329
1040
21.593186
1040
38.944884
1040
21.635037
1070
     1
1040
38.944884
1040
21.635037
1040
38.851395
1040
21.674301
1070
     1
1040
38.851395
1040
21.674301
1040
38.760981
1040
21.72084599999999
1070
     1
1040
38.760981
1040
21.72084599999999
1040
38.70284
1040
21.75613999999999
1070
     1
1040
38.70284
1040
21.75613999999999
1040
38.647077
1040
21.795104
1070
     1
1040
38.647077
1040
21.795104
1040
38.59445
1040
21.837967
1070
     1
1040
38.59445
1040
21.837967
1040
38.54571899999999
1040
21.88495599999999
1070
     1
1040
38.54571899999999
1040
21.88495599999999
1040
38.501642
1040
21.9363
1070
     1
1040
38.501642
1040
21.9363
1040
38.46287699999999
1040
21.99205
1070
     1
1040
38.46287699999999
1040
21.99205
1040
38.429669
1040
22.051562
1070
     1
1040
38.429669
1040
22.051562
1040
38.402161
1040
22.11401299999999
1070
     1
1040
38.402161
1040
22.11401299999999
1040
38.38049799999997
1040
22.178581
1070
     1
1040
38.38049799999997
1040
22.178581
1040
38.364823
1040
22.244444
1070
     1
1040
38.364823
1040
22.244444
1040
39.05107299999999
1040
22.244444
1070
     1
1040
38.364823
1040
23.079194
1040
39.15412299999999
1040
23.079194
1070
     1
1040
39.15412299999999
1040
23.079194
1040
40.34302299999999
1040
23.079194
1070
     1
1040
40.34302299999999
1040
23.079194
1040
40.339099
1040
23.116416
1070
     1
1040
40.339099
1040
23.116416
1040
40.333002
1040
23.153431
1070
     1
1040
40.333002
1040
23.153431
1040
40.324692
1040
23.19004899999999
1070
     1
1040
40.324692
1040
23.19004899999999
1040
40.314132
1040
23.226078
1070
     1
1040
40.314132
1040
23.226078
1040
40.301285
1040
23.261329
1070
     1
1040
40.301285
1040
23.261329
1040
40.286156
1040
23.295606
1070
     1
1040
40.286156
1040
23.295606
1040
40.268864
1040
23.32884599999999
1070
     1
1040
40.268864
1040
23.32884599999999
1040
40.24956699999999
1040
23.36098199999999
1070
     1
1040
40.24956699999999
1040
23.36098199999999
1040
40.228425
1040
23.39194399999999
1070
     1
1040
40.228425
1040
23.39194399999999
1040
40.205595
1040
23.42166399999999
1070
     1
1040
40.205595
1040
23.42166399999999
1040
40.155158
1040
23.47753399999999
1070
     1
1040
40.155158
1040
23.47753399999999
1040
40.113888
1040
23.516059
1070
     1
1040
40.113888
1040
23.516059
1040
40.070149
1040
23.551768
1070
     1
1040
40.070149
1040
23.551768
1040
40.008897
1040
23.59493599999999
1070
     1
1040
40.008897
1040
23.59493599999999
1040
39.960894
1040
23.624144
1070
     1
1040
39.960894
1040
23.624144
1040
39.911351
1040
23.65064299999999
1070
     1
1040
39.911351
1040
23.65064299999999
1040
39.84321299999999
1040
23.68180199999998
1070
     1
1040
39.84321299999999
1040
23.68180199999998
1040
39.737463
1040
23.719811
1070
     1
1040
39.737463
1040
23.719811
1040
39.665034
1040
23.739546
1070
     1
1040
39.665034
1040
23.739546
1040
39.554475
1040
23.760807
1070
     1
1040
39.554475
1040
23.760807
1040
39.479582
1040
23.769534
1070
     1
1040
39.479582
1040
23.769534
1040
39.366678
1040
23.77477
1070
     1
1040
39.366678
1040
23.77477
1040
39.291229
1040
23.773226
1070
     1
1040
39.291229
1040
23.773226
1040
39.178244
1040
23.762802
1070
     1
1040
39.178244
1040
23.762802
1040
39.104388
1040
23.74982399999999
1070
     1
1040
39.104388
1040
23.74982399999999
1040
39.06808499999997
1040
23.740847
1070
     1
1040
39.06808499999997
1040
23.740847
1040
39.032514
1040
23.729811
1070
     1
1040
39.032514
1040
23.729811
1040
38.997912
1040
23.716418
1070
     1
1040
38.997912
1040
23.716418
1040
38.964344
1040
23.700508
1070
     1
1040
38.964344
1040
23.700508
1040
38.834843
1040
23.625681
1070
     1
1040
38.834843
1040
23.625681
1040
38.671594
1040
23.535581
1070
     1
1040
38.671594
1040
23.535581
1040
38.640976
1040
23.51415999999999
1070
     1
1040
38.640976
1040
23.51415999999999
1040
38.61162499999997
1040
23.49087999999999
1070
     1
1040
38.61162499999997
1040
23.49087999999999
1040
38.58359099999999
1040
23.46591099999999
1070
     1
1040
38.58359099999999
1040
23.46591099999999
1040
38.53168099999999
1040
23.41159
1070
     1
1040
38.53168099999999
1040
23.41159
1040
38.485341
1040
23.352025
1070
     1
1040
38.485341
1040
23.352025
1040
38.454621
1040
23.304551
1070
     1
1040
38.454621
1040
23.304551
1040
38.427457
1040
23.25493199999999
1070
     1
1040
38.427457
1040
23.25493199999999
1040
38.39719999999999
1040
23.18647299999998
1070
     1
1040
38.39719999999999
1040
23.18647299999998
1040
38.37898
1040
23.133395
1070
     1
1040
38.37898
1040
23.133395
1040
38.364823
1040
23.079194
1071
        0
1070
     0
1070
     1
1040
0.0
1040
0.062992
1070
     0
1070
     1
1040
0.7853979999999999
1040
-6.225169999999997
1040
-28.624349
1040
-0.141421
1040
0.141421
1070
     0
1071
        1
1040
-6.225169999999997
1040
-28.624349
1040
0.0
1002
}
  0
SPLINE
  5
27
330
2
100
AcDbEntity
  8
CARTOUCHE
  6
CONTINUOUS
 62
     4
100
AcDbSpline
210
0.0
220
0.0
230
1.0
 70
     8
 71
     3
 72
    21
 73
    17
 74
    15
 42
0.0000000001
 43
0.0000000001
 44
0.000001
 12
-0.0762450288998757
 22
0.9970891111470715
 32
0.0
 13
-0.2154301143740796
 23
-0.9765192603429648
 33
0.0
 40
0.0
 40
0.0
 40
0.0
 40
0.0
 40
0.1868552501291134
 40
0.3735743240415496
 40
0.5613842212537326
 40
0.7484489381161418
 40
0.9355884385828151
 40
1.123112064008593
 40
1.311428189761318
 40
1.500242138341788
 40
1.68644372625627
 40
1.873057604711225
 40
2.059520215358866
 40
2.246467675506944
 40
2.434628543455337
 40
2.621193756753851
 40
2.621193756753851
 40
2.621193756753851
 40
2.621193756753851
 10
40.3430229762125
 20
23.07919360711669
 30
0.0
 10
40.33827404823044
 20
23.14129738553815
 30
0.0
 10
40.31098607120404
 20
23.265320998041
 30
0.0
 10
40.21176993964345
 20
23.42743856410386
 30
0.0
 10
40.07410542495196
 20
23.55667636729545
 30
0.0
 10
39.91380146855938
 20
23.65566279649364
 30
0.0
 10
39.73873495456708
 20
23.72452138799516
 30
0.0
 10
39.55490004271077
 20
23.76544088796556
 30
0.0
 10
39.36639757169169
 20
23.77885750750728
 30
0.0
 10
39.17902245598919
 20
23.76782182101862
 30
0.0
 10
38.99274814414789
 20
23.72745913194853
 30
0.0
 10
38.83748760469035
 20
23.62068056673372
 30
0.0
 10
38.66640559987164
 20
23.54392780516531
 30
0.0
 10
38.5252486385435
 20
23.41621618712654
 30
0.0
 10
38.42100518625732
 20
23.25892324324198
 30
0.0
 10
38.37822023129221
 20
23.13992178181535
 30
0.0
 10
38.3648229762125
 20
23.07919360711669
 30
0.0
 11
40.3430229762125
 21
23.07919360711669
 31
0.0
 11
40.30128482007762
 21
23.26132867168497
 31
0.0
 11
40.20559522220136
 21
23.42166431604199
 31
0.0
 11
40.07014905358667
 21
23.55176773224803
 31
0.0
 11
39.91135088271828
 21
23.65064317365038
 31
0.0
 11
39.73746285592488
 21
23.71981068462435
 31
0.0
 11
39.55447534379333
 21
23.76080659501807
 31
0.0
 11
39.36667772831404
 21
23.77477007425147
 31
0.0
 11
39.17824365086321
 21
23.76280187157365
 31
0.0
 11
38.99791204207538
 21
23.71641788353441
 31
0.0
 11
38.83484335052719
 21
23.62568105970969
 31
0.0
 11
38.67159397760771
 21
23.53558123947113
 31
0.0
 11
38.53168126994678
 21
23.41159000587154
 31
0.0
 11
38.42745670868595
 21
23.25493190905036
 31
0.0
 11
38.3648229762125
 21
23.07919360711669
 31
0.0
  0
SPLINE
  5
28
330
2
100
AcDbEntity
  8
CARTOUCHE
  6
CONTINUOUS
 62
     4
100
AcDbSpline
210
0.0
220
0.0
230
1.0
 70
     8
 71
     3
 72
    15
 73
    11
 74
     9
 42
0.0000000001
 43
0.0000000001
 44
0.000001
 12
0.1873467659221653
 22
-0.9822938406090642
 32
0.0
 13
0.7770129286964091
 23
0.6294846373332944
 33
0.0
 40
0.0
 40
0.0
 40
0.0
 40
0.0
 40
0.3371520882962173
 40
0.6743124420665221
 40
1.011741231949288
 40
1.348773281046473
 40
1.687274393511952
 40
1.856092886460973
 40
2.024671668997248
 40
2.361713795269131
 40
2.361713795269131
 40
2.361713795269131
 40
2.361713795269131
 10
38.3648229762125
 20
22.24444360711669
 30
0.0
 10
38.3858777606679
 20
22.13404946722274
 30
0.0
 10
38.4790882392058
 20
21.91720258641543
 30
0.0
 10
38.75430841965682
 20
21.70644962175586
 30
0.0
 10
39.06998579026007
 20
21.58181024957572
 30
0.0
 10
39.40539428132955
 20
21.52556294079901
 30
0.0
 10
39.68949383633029
 20
21.54062590043179
 30
0.0
 10
39.90812614741163
 20
21.59887432412622
 30
0.0
 10
40.11328190683265
 20
21.69222629120345
 30
0.0
 10
40.25572761300297
 20
21.78492266024258
 30
0.0
 10
40.3430229762125
 20
21.85564360711669
 30
0.0
 11
38.3648229762125
 21
22.24444360711669
 31
0.0
 11
38.50164219830394
 21
21.93629966675314
 31
0.0
 11
38.76098099155704
 21
21.72084551731241
 31
0.0
 11
39.07332908880514
 21
21.59318639542833
 31
0.0
 11
39.40580907592664
 21
21.53798084006903
 31
0.0
 11
39.74365139903879
 21
21.55908759838489
 31
0.0
 11
39.90657573481705
 21
21.60330661466392
 31
0.0
 11
40.06077578326681
 21
21.67143258943228
 31
0.0
 11
40.3430229762125
 21
21.85564360711669
 31
0.0
  0
SPLINE
  5
29
330
2
100
AcDbEntity
  8
CARTOUCHE
  6
CONTINUOUS
 62
     4
100
AcDbSpline
210
0.0
220
0.0
230
1.0
 70
     8
 71
     3
 72
    46
 73
    42
 74
    40
 42
0.0000000001
 43
0.0000000001
 44
0.000001
 12
0.2679235453433934
 22
0.9634401765811027
 32
0.0
 13
0.1610223945668763
 23
0.9869507527977013
 33
0.0
 40
0.0
 40
0.0
 40
0.0
 40
0.0
 40
0.281175587961003
 40
0.5640894598527058
 40
0.8489967500744308
 40
1.131204584902207
 40
1.693847130716207
 40
2.25688272553264
 40
2.539006562895592
 40
2.820696627709169
 40
3.102988313571605
 40
3.385254961394735
 40
3.948537059671129
 40
4.512594879571457
 40
5.07629092957905
 40
5.63993899136881
 40
6.203885292827637
 40
6.766738024232013
 40
7.329350602228595
 40
7.892323292363508
 40
8.455148072837035
 40
8.737354674731138
 40
9.018966275430834
 40
9.581780957923621
 40
9.864038410179501
 40
10.14660875455177
 40
10.427656262743
 40
10.71044466815239
 40
11.27439702776555
 40
11.83782171874066
 40
12.40154952919084
 40
12.96488070414784
 40
13.53013628041458
 40
13.81230340811158
 40
14.09372867187361
 40
14.37575650341839
 40
14.65756953458366
 40
14.93943539145297
 40
15.22120083022441
 40
15.50299648006999
 40
15.78483841467692
 40
15.78483841467692
 40
15.78483841467692
 40
15.78483841467692
 10
42.2069229762125
 20
22.2561436071167
 30
0.0
 10
42.23203416300934
 20
22.34644222648851
 30
0.0
 10
42.26336600835234
 20
22.53399302707781
 30
0.0
 10
42.24149685064986
 20
22.81801354893511
 30
0.0
 10
42.17836809953296
 20
23.09483432895952
 30
0.0
 10
42.05825188604773
 20
23.45212616882765
 30
0.0
 10
41.8230668006803
 20
23.8672500462518
 30
0.0
 10
41.46781676949064
 20
24.18453380611619
 30
0.0
 10
41.14761161207627
 20
24.38196283172968
 30
0.0
 10
40.88897553118342
 20
24.49665789401905
 30
0.0
 10
40.6196938696678
 20
24.5817336253022
 30
0.0
 10
40.25431496432636
 20
24.67112545926652
 30
0.0
 10
39.78717039719531
 20
24.73491722666179
 30
0.0
 10
39.22286209832438
 20
24.74314592079588
 30
0.0
 10
38.65912089182813
 20
24.70776726288798
 30
0.0
 10
38.10430973138447
 20
24.60055473365942
 30
0.0
 10
37.56703419814676
 20
24.41975302663696
 30
0.0
 10
37.09128412027332
 20
24.10132431889457
 30
0.0
 10
36.74193897991701
 20
23.6494135573821
 30
0.0
 10
36.52262166512311
 20
23.12465092262862
 30
0.0
 10
36.46286239872555
 20
22.65237437546891
 30
0.0
 10
36.49897197569237
 20
22.27677357904616
 30
0.0
 10
36.60138550967334
 20
21.91447847594101
 30
0.0
 10
36.76185476285074
 20
21.56953949794035
 30
0.0
 10
36.99184531701845
 20
21.27135446443551
 30
0.0
 10
37.18412183917006
 20
21.06372977581579
 30
0.0
 10
37.41499114147041
 20
20.89810995063149
 30
0.0
 10
37.75233275177086
 20
20.73107999541952
 30
0.0
 10
38.19505514432213
 20
20.56630095377483
 30
0.0
 10
38.75227472239755
 20
20.46845436471209
 30
0.0
 10
39.31516450875555
 20
20.42686251213917
 30
0.0
 10
39.87978566121682
 20
20.45310413897524
 30
0.0
 10
40.34636221788836
 20
20.51793252236162
 30
0.0
 10
40.71317022013404
 20
20.60361845862005
 30
0.0
 10
40.98020793552477
 20
20.69575648453571
 30
0.0
 10
41.23634112546804
 20
20.8133707130675
 30
0.0
 10
41.4875620430427
 20
20.94257872732796
 30
0.0
 10
41.71131198312713
 20
21.11779586997518
 30
0.0
 10
41.89210410379192
 20
21.33577447260693
 30
0.0
 10
42.0370545583131
 20
21.57968832418388
 30
0.0
 10
42.0887453551459
 20
21.76292223727327
 30
0.0
 10
42.10387297621249
 20
21.85564360711669
 30
0.0
 11
42.2069229762125
 21
22.2561436071167
 31
0.0
 11
42.25187369928078
 21
22.53370336692193
 31
0.0
 11
42.23470970538826
 21
22.8160960466163
 31
0.0
 11
42.17357887835489
 21
23.0943678180467
 31
0.0
 11
42.08234233059616
 21
23.36142053588839
 31
0.0
 11
41.79914459059214
 21
23.84759505388021
 31
0.0
 11
41.38499580886721
 21
24.22902637720731
 31
0.0
 11
41.14444967147259
 21
24.37644216492157
 31
0.0
 11
40.88739588735783
 21
24.49164913231013
 31
0.0
 11
40.61887239332167
 21
24.57873375105807
 31
0.0
 11
40.34465192624326
 21
24.6456486068168
 31
0.0
 11
39.78677780416953
 21
24.72351512572941
 31
0.0
 11
39.22285539283774
 21
24.73587418697074
 31
0.0
 11
38.66058598489463
 21
24.6957948090196
 31
0.0
 11
38.10728319880826
 21
24.58829981854138
 31
0.0
 11
37.57690963109761
 21
24.39662477322789
 31
0.0
 11
37.11224330369889
 21
24.07899538626728
 31
0.0
 11
36.76366857941347
 21
23.63737494458054
 31
0.0
 11
36.54722159336241
 21
23.11767406956402
 31
0.0
 11
36.47887604508949
 21
22.55901436160783
 31
0.0
 11
36.50730298839906
 21
22.27824312562695
 31
0.0
 11
36.58066141679664
 21
22.00635409419069
 31
0.0
 11
36.82487619371594
 21
21.49928452588675
 31
0.0
 11
36.99507455897878
 21
21.27411393911514
 31
0.0
 11
37.19090624714093
 21
21.07040837833609
 31
0.0
 11
37.41820717151092
 21
20.90511471530928
 31
0.0
 11
37.66963145788086
 21
20.77567317677089
 31
0.0
 11
38.1996064863776
 21
20.58288122875969
 31
0.0
 11
38.75315260795133
 21
20.4778380326807
 31
0.0
 11
39.31548247397889
 21
20.43816227630538
 31
0.0
 11
39.87832438970059
 21
20.46163547548923
 31
0.0
 11
40.43780417420945
 21
20.54223471097221
 31
0.0
 11
40.71211753370237
 21
20.60834422386486
 31
0.0
 11
40.97822189579761
 21
20.69993377525821
 31
0.0
 11
41.23556355576588
 21
20.81532426148599
 31
0.0
 11
41.48298030283661
 21
20.95024471011851
 31
0.0
 11
41.70417597333143
 21
21.12494680466518
 31
0.0
 11
41.88612496759311
 21
21.3400893433574
 31
0.0
 11
42.02581025553314
 21
21.58482751880403
 31
0.0
 11
42.10387297621249
 21
21.85564360711669
 31
0.0
  0
LINE
  5
2A
330
2
100
AcDbEntity
  8
CARTOUCHE
  6
CONTINUOUS
 62
     4
100
AcDbLine
 10
39.15412299999999
 20
23.079194
 30
0.0
 11
40.34302299999999
 21
23.079194
 31
0.0
  0
LINE
  5
2B
330
2
100
AcDbEntity
  8
CARTOUCHE
  6
CONTINUOUS
 62
     4
100
AcDbLine
 10
42.20692299999997
 20
22.25614399999999
 30
0.0
 11
39.15412299999999
 21
22.244444
 31
0.0
  0
TEXT
  5
2C
330
2
100
AcDbEntity
  8
CARTOUCHE
  6
CONTINUOUS
 62
     2
100
AcDbText
 10
19.35727248705006
 20
6.600975074802907
 30
0.0
 40
1.8
  1
MOD. UT 902
 50
359.9999079999998
 41
1.05
  7
FINDER
 72
     1
 11
27.500001
 21
6.600961999999999
 31
0.0
100
AcDbText
  0
TEXT
  5
2D
330
2
100
AcDbEntity
  8
CARTOUCHE
  6
CONTINUOUS
 62
     2
100
AcDbText
 10
16.27474179128323
 20
14.30878202443143
 30
0.0
 40
1.8
  1
www.findernet.com
 50
359.9999079999998
 41
1.05
  7
FINDER
 72
     1
 11
27.500001
 21
14.308764
 31
0.0
100
AcDbText
  0
INSERT
  5
2E
330
2
100
AcDbEntity
  8
CARTOUCHE
  6
CONTINUOUS
 62
     4
100
AcDbBlockReference
  2
*X6
 10
0.0
 20
0.0
 30
0.0
1001
ACAD
1000
HATCH
1002
{
1070
    19
1000
ANSI31
1040
0.062992
1040
0.0
1000
R14_HATCH_DATA
1000
2E
1011
1.0
1021
0.0
1031
0.0
1011
0.0
1021
1.0
1031
0.0
1011
0.0
1021
0.0
1031
1.0
1040
0.0
1010
0.0
1020
0.0
1030
1.0
1000
ANSI31
1070
     0
1070
     0
1071
        1
1071
        1
1071
        4
1070
     1
1040
21.807973
1040
24.508394
1040
21.807973
1040
20.63209399999998
1070
     1
1040
21.807973
1040
20.63209399999998
1040
23.625973
1040
20.63209399999998
1070
     1
1040
23.625973
1040
20.63209399999998
1040
23.625973
1040
24.508394
1070
     1
1040
23.625973
1040
24.508394
1040
21.807973
1040
24.508394
1071
        0
1070
     0
1070
     1
1040
0.0
1040
0.062992
1070
     0
1070
     1
1040
0.7853979999999999
1040
-6.225169999999997
1040
-28.624349
1040
-0.141421
1040
0.141421
1070
     0
1071
        1
1040
-6.225169999999997
1040
-28.624349
1040
0.0
1002
}
  0
INSERT
  5
2F
330
2
100
AcDbEntity
  8
CARTOUCHE
  6
CONTINUOUS
 62
     4
100
AcDbBlockReference
  2
*X7
 10
0.0
 20
0.0
 30
0.0
1001
ACAD
1000
HATCH
1002
{
1070
    19
1000
ANSI31
1040
0.062992
1040
0.0
1000
R14_HATCH_DATA
1000
2F
1011
1.0
1021
0.0
1031
0.0
1011
0.0
1021
1.0
1031
0.0
1011
0.0
1021
0.0
1031
1.0
1040
0.0
1010
0.0
1020
0.0
1030
1.0
1000
ANSI31
1070
     0
1070
     0
1071
        1
1071
        1
1071
        4
1070
     1
1040
21.807973
1040
25.834994
1040
21.807973
1040
24.943094
1070
     1
1040
21.807973
1040
24.943094
1040
23.625973
1040
24.943094
1070
     1
1040
23.625973
1040
24.943094
1040
23.625973
1040
25.834994
1070
     1
1040
23.625973
1040
25.834994
1040
21.807973
1040
25.834994
1071
        0
1070
     0
1070
     1
1040
0.0
1040
0.062992
1070
     0
1070
     1
1040
0.7853979999999999
1040
-6.225169999999997
1040
-28.624349
1040
-0.141421
1040
0.141421
1070
     0
1071
        1
1040
-6.225169999999997
1040
-28.624349
1040
0.0
1002
}
  0
LINE
  5
30
330
2
100
AcDbEntity
  8
CARTOUCHE
  6
CONTINUOUS
 62
     4
100
AcDbLine
 10
23.625973
 20
24.943094
 30
0.0
 11
21.807973
 21
24.943094
 31
0.0
  0
LINE
  5
31
330
2
100
AcDbEntity
  8
CARTOUCHE
  6
CONTINUOUS
 62
     4
100
AcDbLine
 10
21.807973
 20
25.834994
 30
0.0
 11
23.625973
 21
25.834994
 31
0.0
  0
LINE
  5
32
330
2
100
AcDbEntity
  8
CARTOUCHE
  6
CONTINUOUS
 62
     4
100
AcDbLine
 10
23.625973
 20
20.63209399999998
 30
0.0
 11
21.807973
 21
20.63209399999998
 31
0.0
  0
LINE
  5
33
330
2
100
AcDbEntity
  8
CARTOUCHE
  6
CONTINUOUS
 62
     4
100
AcDbLine
 10
21.807973
 20
24.508394
 30
0.0
 11
23.625973
 21
24.508394
 31
0.0
  0
INSERT
  5
34
330
2
100
AcDbEntity
  8
CARTOUCHE
  6
CONTINUOUS
 62
     4
100
AcDbBlockReference
  2
*X8
 10
0.0
 20
0.0
 30
0.0
1001
ACAD
1000
HATCH
1002
{
1070
    19
1000
ANSI31
1040
0.062992
1040
0.0
1000
R14_HATCH_DATA
1000
34
1011
1.0
1021
0.0
1031
0.0
1011
0.0
1021
1.0
1031
0.0
1011
0.0
1021
0.0
1031
1.0
1040
0.0
1010
0.0
1020
0.0
1030
1.0
1000
ANSI31
1070
     0
1070
     0
1071
        1
1071
        1
1071
       50
1070
     1
1040
10.46482299999998
1040
24.428744
1040
10.46482299999998
1040
27.399506
1070
     1
1040
8.174775999999999
1040
24.428744
1040
10.46482299999998
1040
24.428744
1070
     1
1040
11.41387299999998
1040
27.652621
1040
11.41387299999998
1040
23.766514
1070
     1
1040
11.11642299999999
1040
23.410844
1040
10.88782299999998
1040
23.410844
1070
     1
1040
10.88782299999998
1040
23.410844
1040
12.362923
1040
21.81019399999999
1070
     1
1040
12.362923
1040
21.81019399999999
1040
12.362923
1040
27.65548499999999
1070
     1
1040
9.378522999999999
1040
23.410844
1040
8.176313
1040
23.410844
1070
     1
1040
13.323223
1040
27.404134
1040
13.323223
1040
25.503344
1070
     1
1040
13.323223
1040
25.503344
1040
14.35365599999999
1040
25.503344
1070
     1
1040
14.455423
1040
24.508394
1040
13.323223
1040
24.508394
1070
     1
1040
13.323223
1040
24.508394
1040
13.323223
1040
21.169844
1070
     1
1040
13.323223
1040
21.169844
1040
13.31883499999999
1040
21.126412
1070
     1
1040
13.31883499999999
1040
21.126412
1040
13.311632
1040
21.08326799999999
1070
     1
1040
13.311632
1040
21.08326799999999
1040
13.301677
1040
21.040602
1070
     1
1040
13.301677
1040
21.040602
1040
13.289029
1040
20.99860499999997
1070
     1
1040
13.289029
1040
20.99860499999997
1040
13.27374999999999
1040
20.957468
1070
     1
1040
13.27374999999999
1040
20.957468
1040
13.25587699999999
1040
20.91734
1070
     1
1040
13.25587699999999
1040
20.91734
1040
13.23547999999999
1040
20.878466
1070
     1
1040
13.23547999999999
1040
20.878466
1040
13.212608
1040
20.841045
1070
     1
1040
13.212608
1040
20.841045
1040
13.187312
1040
20.805278
1070
     1
1040
13.187312
1040
20.805278
1040
13.159643
1040
20.77136499999999
1070
     1
1040
13.159643
1040
20.77136499999999
1040
13.129815
1040
20.73960499999997
1070
     1
1040
13.129815
1040
20.73960499999997
1040
13.09792
1040
20.70987399999999
1070
     1
1040
13.09792
1040
20.70987399999999
1040
13.064194
1040
20.682164
1070
     1
1040
13.064194
1040
20.682164
1040
13.028871
1040
20.656467
1070
     1
1040
13.028871
1040
20.656467
1040
12.99218699999999
1040
20.63277499999998
1070
     1
1040
12.99218699999999
1040
20.63277499999998
1040
12.91478699999998
1040
20.591129
1070
     1
1040
12.91478699999998
1040
20.591129
1040
12.874555
1040
20.573479
1070
     1
1040
12.874555
1040
20.573479
1040
12.83339999999999
1040
20.55801
1070
     1
1040
12.83339999999999
1040
20.55801
1040
12.791398
1040
20.544775
1070
     1
1040
12.791398
1040
20.544775
1040
12.749249
1040
20.53399399999999
1070
     1
1040
12.749249
1040
20.53399399999999
1040
12.706539
1040
20.52567799999998
1070
     1
1040
12.706539
1040
20.52567799999998
1040
12.663456
1040
20.52007
1070
     1
1040
12.663456
1040
20.52007
1040
12.620191
1040
20.517416
1070
     1
1040
12.620191
1040
20.517416
1040
12.57693399999999
1040
20.51796
1070
     1
1040
12.57693399999999
1040
20.51796
1040
12.533829
1040
20.52186
1070
     1
1040
12.533829
1040
20.52186
1040
12.491053
1040
20.528907
1070
     1
1040
12.491053
1040
20.528907
1040
12.448736
1040
20.53879699999999
1070
     1
1040
12.448736
1040
20.53879699999999
1040
12.407007
1040
20.551229
1070
     1
1040
12.407007
1040
20.551229
1040
12.365998
1040
20.565901
1070
     1
1040
12.365998
1040
20.565901
1040
12.286013
1040
20.60136299999999
1070
     1
1040
12.286013
1040
20.60136299999999
1040
12.228617
1040
20.63285299999998
1070
     1
1040
12.228617
1040
20.63285299999998
1040
12.173699
1040
20.66832799999998
1070
     1
1040
12.173699
1040
20.66832799999998
1040
9.378522999999999
1040
23.410844
1070
     2
1040
11.899646
1040
23.925422
1040
4.756723
1040
0.0
1040
6.283184999999997
1070
     1
1070
     2
1040
11.899651
1040
23.925417
1040
3.758726999999998
1040
1.962466
1040
3.007279999999998
1070
     1
1070
     2
1040
10.95095399999999
1040
23.85149299999999
1040
0.4706070000000003
1040
5.071608999999997
1040
6.101634999999999
1070
     1
1070
     2
1040
11.899651
1040
23.925417
1040
3.758726999999998
1040
1.44723
1040
1.700399
1070
     1
1070
     2
1040
11.899651
1040
23.925417
1040
3.758726999999998
1040
3.278925
1040
7.465549
1070
     1
1070
     2
1040
14.404539
1040
25.005869
1040
0.5000710000000002
1040
4.814318
1040
7.955911
1070
     1
1071
        0
1070
     0
1070
     1
1040
0.0
1040
0.062992
1070
     0
1070
     1
1040
0.7853979999999999
1040
-6.225169999999997
1040
-28.624349
1040
-0.141421
1040
0.141421
1070
     0
1071
        1
1040
-6.225169999999997
1040
-28.624349
1040
0.0
1002
}
  0
ARC
  5
35
330
2
100
AcDbEntity
  8
CARTOUCHE
  6
CONTINUOUS
 62
     4
100
AcDbCircle
 10
14.404539
 20
25.005869
 30
0.0
 40
0.5000710000000002
100
AcDbArc
 50
275.8401249999999
 51
95.840125
  0
ARC
  5
36
330
2
100
AcDbEntity
  8
CARTOUCHE
  6
CONTINUOUS
 62
     4
100
AcDbCircle
 10
11.899651
 20
23.925417
 30
0.0
 40
3.758726999999998
100
AcDbArc
 50
187.868554
 51
67.74447600000001
  0
CIRCLE
  5
37
330
2
100
AcDbEntity
  8
CARTOUCHE
  6
CONTINUOUS
 62
     4
100
AcDbCircle
 10
11.899646
 20
23.925422
 30
0.0
 40
4.756723
  0
SPLINE
  5
38
330
2
100
AcDbEntity
  8
CARTOUCHE
  6
CONTINUOUS
 62
     4
100
AcDbSpline
210
0.0
220
0.0
230
1.0
 70
     8
 71
     3
 72
    14
 73
    10
 74
     8
 42
0.0000000001
 43
0.0000000001
 44
0.000001
 12
-0.0678904074543379
 22
-0.9976927846665446
 32
0.0
 13
-0.8200536786282524
 23
0.5722866101598664
 33
0.0
 40
0.0
 40
0.0
 40
0.0
 40
0.0
 40
0.2180606789005035
 40
0.4363602626287959
 40
0.6537280242066323
 40
0.8729546411850197
 40
1.089088005528243
 40
1.30540337382884
 40
1.523279715932528
 40
1.523279715932528
 40
1.523279715932528
 40
1.523279715932528
 10
13.32322297621248
 20
21.16984360711669
 30
0.0
 10
13.31828823343238
 20
21.09732441846385
 30
0.0
 10
13.28444048343501
 20
20.95301317401816
 30
0.0
 10
13.16948288538594
 20
20.76307428830321
 30
0.0
 10
12.99638521645118
 20
20.62406333344728
 30
0.0
 10
12.79557455913799
 20
20.53568047568411
 30
0.0
 10
12.57604688222645
 20
20.5036065741256
 30
0.0
 10
12.36194585198924
 20
20.55796217058827
 30
0.0
 10
12.23325574438505
 20
20.6267655025048
 30
0.0
 10
12.17369897910899
 20
20.66832807359032
 30
0.0
 11
13.32322297621248
 21
21.16984360711669
 31
0.0
 11
13.27374961772985
 21
20.95746843688553
 31
0.0
 11
13.15964273339541
 21
20.77136537381492
 31
0.0
 11
12.99218699760144
 21
20.63277473124212
 31
0.0
 11
12.79139755994316
 21
20.54477508934442
 31
0.0
 11
12.57693403206399
 21
20.51795972590457
 31
0.0
 11
12.36599789339048
 21
20.56590052451097
 31
0.0
 11
12.17369897910899
 21
20.66832807359032
 31
0.0
  0
LINE
  5
39
330
2
100
AcDbEntity
  8
CARTOUCHE
  6
CONTINUOUS
 62
     4
100
AcDbLine
 10
9.378522999999999
 20
23.410844
 30
0.0
 11
12.173699
 21
20.66832799999998
 31
0.0
  0
ARC
  5
3A
330
2
100
AcDbEntity
  8
CARTOUCHE
  6
CONTINUOUS
 62
     4
100
AcDbCircle
 10
11.899651
 20
23.925417
 30
0.0
 40
3.758726999999998
100
AcDbArc
 50
112.441032
 51
172.30447
  0
LINE
  5
3B
330
2
100
AcDbEntity
  8
CARTOUCHE
  6
CONTINUOUS
 62
     4
100
AcDbLine
 10
10.46482299999998
 20
27.399506
 30
0.0
 11
10.46482299999998
 21
24.428744
 31
0.0
  0
LINE
  5
3C
330
2
100
AcDbEntity
  8
CARTOUCHE
  6
CONTINUOUS
 62
     4
100
AcDbLine
 10
8.176313
 20
23.410844
 30
0.0
 11
9.378522999999999
 21
23.410844
 31
0.0
  0
LINE
  5
3D
330
2
100
AcDbEntity
  8
CARTOUCHE
  6
CONTINUOUS
 62
     4
100
AcDbLine
 10
10.46482299999998
 20
24.428744
 30
0.0
 11
8.174775999999999
 21
24.428744
 31
0.0
  0
LINE
  5
3E
330
2
100
AcDbEntity
  8
CARTOUCHE
  6
CONTINUOUS
 62
     4
100
AcDbLine
 10
13.323223
 20
25.503344
 30
0.0
 11
13.323223
 21
27.404134
 31
0.0
  0
LINE
  5
3F
330
2
100
AcDbEntity
  8
CARTOUCHE
  6
CONTINUOUS
 62
     4
100
AcDbLine
 10
11.41387299999998
 20
23.766514
 30
0.0
 11
11.41387299999998
 21
27.652621
 31
0.0
  0
LINE
  5
40
330
2
100
AcDbEntity
  8
CARTOUCHE
  6
CONTINUOUS
 62
     4
100
AcDbLine
 10
12.362923
 20
27.65548499999999
 30
0.0
 11
12.362923
 21
21.81019399999999
 31
0.0
  0
ARC
  5
41
330
2
100
AcDbEntity
  8
CARTOUCHE
  6
CONTINUOUS
 62
     4
100
AcDbCircle
 10
10.95095399999999
 20
23.85149299999999
 30
0.0
 40
0.4706070000000003
100
AcDbArc
 50
290.581791
 51
349.597912
  0
LINE
  5
42
330
2
100
AcDbEntity
  8
CARTOUCHE
  6
CONTINUOUS
 62
     4
100
AcDbLine
 10
10.88782299999998
 20
23.410844
 30
0.0
 11
11.11642299999999
 21
23.410844
 31
0.0
  0
LINE
  5
43
330
2
100
AcDbEntity
  8
CARTOUCHE
  6
CONTINUOUS
 62
     4
100
AcDbLine
 10
12.362923
 20
21.81019399999999
 30
0.0
 11
10.88782299999998
 21
23.410844
 31
0.0
  0
LINE
  5
44
330
2
100
AcDbEntity
  8
CARTOUCHE
  6
CONTINUOUS
 62
     4
100
AcDbLine
 10
14.35365599999999
 20
25.503344
 30
0.0
 11
13.323223
 21
25.503344
 31
0.0
  0
LINE
  5
45
330
2
100
AcDbEntity
  8
CARTOUCHE
  6
CONTINUOUS
 62
     4
100
AcDbLine
 10
13.323223
 20
24.508394
 30
0.0
 11
14.455423
 21
24.508394
 31
0.0
  0
LINE
  5
46
330
2
100
AcDbEntity
  8
CARTOUCHE
  6
CONTINUOUS
 62
     4
100
AcDbLine
 10
13.323223
 20
21.169844
 30
0.0
 11
13.323223
 21
24.508394
 31
0.0
  0
ARC
  5
47
330
2
100
AcDbEntity
  8
CARTOUCHE
  6
CONTINUOUS
 62
     4
100
AcDbCircle
 10
11.899651
 20
23.925417
 30
0.0
 40
3.758726999999998
100
AcDbArc
 50
82.92015400000002
 51
97.425676
  0
INSERT
  5
48
330
2
100
AcDbEntity
  8
CARTOUCHE
  6
CONTINUOUS
 62
     4
100
AcDbBlockReference
  2
*X9
 10
0.0
 20
0.0
 30
0.0
1001
ACAD
1000
HATCH
1002
{
1070
    19
1000
ANSI31
1040
0.062992
1040
0.0
1000
R14_HATCH_DATA
1000
48
1011
1.0
1021
0.0
1031
0.0
1011
0.0
1021
1.0
1031
0.0
1011
0.0
1021
0.0
1031
1.0
1040
0.0
1010
0.0
1020
0.0
1030
1.0
1000
ANSI31
1070
     0
1070
     0
1071
        1
1071
        1
1071
       16
1070
     1
1040
18.674623
1040
24.508394
1040
18.674623
1040
24.929401
1070
     1
1040
19.58025899999998
1040
25.834994
1040
21.087523
1040
25.834994
1070
     1
1040
21.087523
1040
25.834994
1040
21.087523
1040
24.931844
1070
     1
1040
21.087523
1040
24.931844
1040
20.679053
1040
24.931844
1070
     1
1040
20.461079
1040
24.768622
1040
20.412973
1040
24.508394
1070
     1
1040
20.412973
1040
24.508394
1040
21.087523
1040
24.508394
1070
     1
1040
21.087523
1040
24.508394
1040
21.087523
1040
23.410844
1070
     1
1040
21.087523
1040
23.410844
1040
20.470123
1040
23.410844
1070
     1
1040
20.470123
1040
23.410844
1040
20.470123
1040
20.63209399999998
1070
     1
1040
20.470123
1040
20.63209399999998
1040
18.674623
1040
20.63209399999998
1070
     1
1040
18.674623
1040
20.63209399999998
1040
18.674623
1040
23.410844
1070
     1
1040
18.674623
1040
23.410844
1040
18.137323
1040
23.410844
1070
     1
1040
18.137323
1040
23.410844
1040
18.137323
1040
24.508394
1070
     1
1040
18.137323
1040
24.508394
1040
18.674623
1040
24.508394
1070
     2
1040
19.58025899999998
1040
24.929401
1040
0.905639
1040
1.570795999999999
1040
3.141592999999998
1070
     1
1070
     2
1040
20.705988
1040
24.668716
1040
0.264503
1040
1.672804999999999
1040
2.754265999999998
1070
     1
1071
        0
1070
     0
1070
     1
1040
0.0
1040
0.062992
1070
     0
1070
     1
1040
0.7853979999999999
1040
-6.225169999999997
1040
-28.624349
1040
-0.141421
1040
0.141421
1070
     0
1071
        1
1040
-6.225169999999997
1040
-28.624349
1040
0.0
1002
}
  0
LINE
  5
49
330
2
100
AcDbEntity
  8
CARTOUCHE
  6
CONTINUOUS
 62
     4
100
AcDbLine
 10
21.807973
 20
20.63209399999998
 30
0.0
 11
21.807973
 21
24.508394
 31
0.0
  0
LINE
  5
4A
330
2
100
AcDbEntity
  8
CARTOUCHE
  6
CONTINUOUS
 62
     4
100
AcDbLine
 10
20.470123
 20
20.63209399999998
 30
0.0
 11
20.470123
 21
23.410844
 31
0.0
  0
LINE
  5
4B
330
2
100
AcDbEntity
  8
CARTOUCHE
  6
CONTINUOUS
 62
     4
100
AcDbLine
 10
18.674623
 20
23.410844
 30
0.0
 11
18.674623
 21
20.63209399999998
 31
0.0
  0
LINE
  5
4C
330
2
100
AcDbEntity
  8
CARTOUCHE
  6
CONTINUOUS
 62
     4
100
AcDbLine
 10
18.674623
 20
20.63209399999998
 30
0.0
 11
20.470123
 21
20.63209399999998
 31
0.0
  0
ARC
  5
4D
330
2
100
AcDbEntity
  8
CARTOUCHE
  6
CONTINUOUS
 62
     4
100
AcDbCircle
 10
19.58025899999998
 20
24.929401
 30
0.0
 40
0.905639
100
AcDbArc
 50
90.0
 51
180.0
  0
LINE
  5
4E
330
2
100
AcDbEntity
  8
CARTOUCHE
  6
CONTINUOUS
 62
     4
100
AcDbLine
 10
18.137323
 20
23.410844
 30
0.0
 11
18.674623
 21
23.410844
 31
0.0
  0
LINE
  5
4F
330
2
100
AcDbEntity
  8
CARTOUCHE
  6
CONTINUOUS
 62
     4
100
AcDbLine
 10
18.137323
 20
24.508394
 30
0.0
 11
18.137323
 21
23.410844
 31
0.0
  0
LINE
  5
50
330
2
100
AcDbEntity
  8
CARTOUCHE
  6
CONTINUOUS
 62
     4
100
AcDbLine
 10
18.674623
 20
24.508394
 30
0.0
 11
18.137323
 21
24.508394
 31
0.0
  0
LINE
  5
51
330
2
100
AcDbEntity
  8
CARTOUCHE
  6
CONTINUOUS
 62
     4
100
AcDbLine
 10
18.674623
 20
24.931844
 30
0.0
 11
18.674623
 21
24.508394
 31
0.0
  0
LINE
  5
52
330
2
100
AcDbEntity
  8
CARTOUCHE
  6
CONTINUOUS
 62
     4
100
AcDbLine
 10
20.679053
 20
24.931844
 30
0.0
 11
21.087523
 21
24.931844
 31
0.0
  0
LINE
  5
53
330
2
100
AcDbEntity
  8
CARTOUCHE
  6
CONTINUOUS
 62
     4
100
AcDbLine
 10
21.087523
 20
24.508394
 30
0.0
 11
20.412973
 21
24.508394
 31
0.0
  0
LINE
  5
54
330
2
100
AcDbEntity
  8
CARTOUCHE
  6
CONTINUOUS
 62
     4
100
AcDbLine
 10
20.470123
 20
23.410844
 30
0.0
 11
21.087523
 21
23.410844
 31
0.0
  0
LINE
  5
55
330
2
100
AcDbEntity
  8
CARTOUCHE
  6
CONTINUOUS
 62
     4
100
AcDbLine
 10
21.087523
 20
25.834994
 30
0.0
 11
19.589473
 21
25.834994
 31
0.0
  0
ARC
  5
56
330
2
100
AcDbEntity
  8
CARTOUCHE
  6
CONTINUOUS
 62
     4
100
AcDbCircle
 10
20.705988
 20
24.668716
 30
0.0
 40
0.264503
100
AcDbArc
 50
95.844673
 51
157.807812
  0
LINE
  5
57
330
2
100
AcDbEntity
  8
CARTOUCHE
  6
CONTINUOUS
 62
     4
100
AcDbLine
 10
20.412973
 20
24.508394
 30
0.0
 11
20.461079
 21
24.768622
 31
0.0
  0
LINE
  5
58
330
2
100
AcDbEntity
  8
CARTOUCHE
  6
CONTINUOUS
 62
     4
100
AcDbLine
 10
21.807973
 20
24.943094
 30
0.0
 11
21.807973
 21
25.834994
 31
0.0
  0
LINE
  5
59
330
2
100
AcDbEntity
  8
CARTOUCHE
  6
CONTINUOUS
 62
     4
100
AcDbLine
 10
21.087523
 20
23.410844
 30
0.0
 11
21.087523
 21
24.508394
 31
0.0
  0
LINE
  5
5A
330
2
100
AcDbEntity
  8
CARTOUCHE
  6
CONTINUOUS
 62
     4
100
AcDbLine
 10
21.087523
 20
24.931844
 30
0.0
 11
21.087523
 21
25.834994
 31
0.0
  0
INSERT
  5
5B
330
2
100
AcDbEntity
  8
CARTOUCHE
  6
CONTINUOUS
 62
     4
100
AcDbBlockReference
  2
*X10
 10
0.0
 20
0.0
 30
0.0
1001
ACAD
1000
HATCH
1002
{
1070
    19
1000
ANSI31
1040
0.062992
1040
0.0
1000
R14_HATCH_DATA
1000
5B
1011
1.0
1021
0.0
1031
0.0
1011
0.0
1021
1.0
1031
0.0
1011
0.0
1021
0.0
1031
1.0
1040
0.0
1010
0.0
1020
0.0
1030
1.0
1000
ANSI31
1070
     0
1070
     0
1071
        1
1071
        1
1071
      154
1070
     1
1040
34.19152299999999
1040
24.319904
1040
34.136639
1040
24.365465
1070
     1
1040
34.136639
1040
24.365465
1040
34.093353
1040
24.396952
1070
     1
1040
34.093353
1040
24.396952
1040
34.048146
1040
24.425518
1070
     1
1040
34.048146
1040
24.425518
1040
33.985315
1040
24.45824299999999
1070
     1
1040
33.985315
1040
24.45824299999999
1040
33.936415
1040
24.47918299999999
1070
     1
1040
33.936415
1040
24.47918299999999
1040
33.886414
1040
24.497349
1070
     1
1040
33.886414
1040
24.497349
1040
33.800369
1040
24.52267
1070
     1
1040
33.800369
1040
24.52267
1040
33.713056
1040
24.543137
1070
     1
1040
33.713056
1040
24.543137
1040
33.53598499999999
1040
24.577164
1070
     1
1040
33.53598499999999
1040
24.577164
1040
33.183861
1040
24.631643
1070
     1
1040
33.183861
1040
24.631643
1040
32.829714
1040
24.65361099999999
1070
     1
1040
32.829714
1040
24.65361099999999
1040
32.473075
1040
24.642759
1070
     1
1040
32.473075
1040
24.642759
1040
32.295535
1040
24.627567
1070
     1
1040
32.295535
1040
24.627567
1040
32.119422
1040
24.601922
1070
     1
1040
32.119422
1040
24.601922
1040
31.980393
1040
24.570874
1070
     1
1040
31.980393
1040
24.570874
1040
31.77626899999999
1040
24.506919
1070
     1
1040
31.77626899999999
1040
24.506919
1040
31.643857
1040
24.453442
1070
     1
1040
31.643857
1040
24.453442
1040
31.54719899999999
1040
24.407478
1070
     1
1040
31.54719899999999
1040
24.407478
1040
31.453318
1040
24.3562
1070
     1
1040
31.453318
1040
24.3562
1040
31.333276
1040
24.279541
1070
     1
1040
31.333276
1040
24.279541
1040
31.164251
1040
24.148688
1070
     1
1040
31.164251
1040
24.148688
1040
31.058938
1040
24.05235799999999
1070
     1
1040
31.058938
1040
24.05235799999999
1040
30.912683
1040
23.896114
1070
     1
1040
30.912683
1040
23.896114
1040
30.823445
1040
23.784931
1070
     1
1040
30.823445
1040
23.784931
1040
30.703793
1040
23.607819
1070
     1
1040
30.703793
1040
23.607819
1040
30.63481599999999
1040
23.48301999999999
1070
     1
1040
30.63481599999999
1040
23.48301999999999
1040
30.589096
1040
23.38631
1070
     1
1040
30.589096
1040
23.38631
1040
30.54866099999999
1040
23.287292
1070
     1
1040
30.54866099999999
1040
23.287292
1040
30.503077
1040
23.152132
1070
     1
1040
30.503077
1040
23.152132
1040
30.45247299999999
1040
22.94419899999998
1070
     1
1040
30.45247299999999
1040
22.94419899999998
1040
30.430632
1040
22.80314999999999
1070
     1
1040
30.430632
1040
22.80314999999999
1040
30.42104699999999
1040
22.696588
1070
     1
1040
30.42104699999999
1040
22.696588
1040
30.41782
1040
22.58973
1070
     1
1040
30.41782
1040
22.58973
1040
30.423783
1040
22.44735499999999
1070
     1
1040
30.423783
1040
22.44735499999999
1040
30.45204699999999
1040
22.235266
1070
     1
1040
30.45204699999999
1040
22.235266
1040
30.481823
1040
22.09568299999999
1070
     1
1040
30.481823
1040
22.09568299999999
1040
30.54294099999999
1040
21.89073699999999
1070
     1
1040
30.54294099999999
1040
21.89073699999999
1040
30.595245
1040
21.758144
1070
     1
1040
30.595245
1040
21.758144
1040
30.640663
1040
21.661326
1070
     1
1040
30.640663
1040
21.661326
1040
30.691396
1040
21.567163
1070
     1
1040
30.691396
1040
21.567163
1040
30.76734099999999
1040
21.44630199999999
1070
     1
1040
30.76734099999999
1040
21.44630199999999
1040
30.830371
1040
21.359778
1070
     1
1040
30.830371
1040
21.359778
1040
30.89849
1040
21.27724999999998
1070
     1
1040
30.89849
1040
21.27724999999998
1040
30.99676699999999
1040
21.17408
1070
     1
1040
30.99676699999999
1040
21.17408
1040
31.158025
1040
21.033767
1070
     1
1040
31.158025
1040
21.033767
1040
31.273232
1040
20.94957699999997
1070
     1
1040
31.273232
1040
20.94957699999997
1040
31.455483
1040
20.837379
1070
     1
1040
31.455483
1040
20.837379
1040
31.58228499999999
1040
20.77219599999998
1070
     1
1040
31.58228499999999
1040
20.77219599999998
1040
31.680038
1040
20.728943
1070
     1
1040
31.680038
1040
20.728943
1040
31.77997
1040
20.691125
1070
     1
1040
31.77997
1040
20.691125
1040
31.91640599999999
1040
20.64973699999999
1070
     1
1040
31.91640599999999
1040
20.64973699999999
1040
32.12581399999999
1040
20.606082
1070
     1
1040
32.12581399999999
1040
20.606082
1040
32.302677
1040
20.584734
1070
     1
1040
32.302677
1040
20.584734
1040
32.48050399999999
1040
20.573741
1070
     1
1040
32.48050399999999
1040
20.573741
1040
32.83642
1040
20.570894
1070
     1
1040
32.83642
1040
20.570894
1040
33.19287
1040
20.58610199999999
1070
     1
1040
33.19287
1040
20.58610199999999
1040
33.33459699999998
1040
20.6
1070
     1
1040
33.33459699999998
1040
20.6
1040
33.545271
1040
20.63588399999998
1070
     1
1040
33.545271
1040
20.63588399999998
1040
33.682853
1040
20.67301599999999
1070
     1
1040
33.682853
1040
20.67301599999999
1040
33.817433
1040
20.721154
1070
     1
1040
33.817433
1040
20.721154
1040
33.947848
1040
20.779822
1070
     1
1040
33.947848
1040
20.779822
1040
34.072933
1040
20.848544
1070
     1
1040
34.072933
1040
20.848544
1040
34.19152299999999
1040
20.926844
1070
     1
1040
34.19152299999999
1040
20.926844
1040
34.19152299999999
1040
20.620844
1070
     1
1040
34.19152299999999
1040
20.620844
1040
35.986573
1040
20.620844
1070
     1
1040
35.986573
1040
20.620844
1040
35.986573
1040
25.823744
1070
     1
1040
35.986573
1040
25.823744
1040
34.19152299999999
1040
25.823744
1070
     1
1040
34.19152299999999
1040
25.823744
1040
34.19152299999999
1040
24.319904
1070
     1
1040
34.19152299999999
1040
22.759244
1040
34.185224
1040
22.797429
1070
     1
1040
34.185224
1040
22.797429
1040
34.176704
1040
22.835258
1070
     1
1040
34.176704
1040
22.835258
1040
34.165972
1040
22.87256499999999
1070
     1
1040
34.165972
1040
22.87256499999999
1040
34.15304099999998
1040
22.909184
1070
     1
1040
34.15304099999998
1040
22.909184
1040
34.137919
1040
22.94494999999999
1070
     1
1040
34.137919
1040
22.94494999999999
1040
34.12062199999999
1040
22.97972399999999
1070
     1
1040
34.12062199999999
1040
22.97972399999999
1040
34.10124099999999
1040
23.01337
1070
     1
1040
34.10124099999999
1040
23.01337
1040
34.079871
1040
23.045781
1070
     1
1040
34.079871
1040
23.045781
1040
34.05661
1040
23.076848
1070
     1
1040
34.05661
1040
23.076848
1040
34.031554
1040
23.106464
1070
     1
1040
34.031554
1040
23.106464
1040
34.004808
1040
23.13453999999999
1070
     1
1040
34.004808
1040
23.13453999999999
1040
33.97651299999999
1040
23.16105899999999
1070
     1
1040
33.97651299999999
1040
23.16105899999999
1040
33.931497
1040
23.19792
1070
     1
1040
33.931497
1040
23.19792
1040
33.883839
1040
23.231288
1070
     1
1040
33.883839
1040
23.231288
1040
33.817408
1040
23.270254
1070
     1
1040
33.817408
1040
23.270254
1040
33.7126
1040
23.31870499999999
1070
     1
1040
33.7126
1040
23.31870499999999
1040
33.52912599999999
1040
23.38024
1070
     1
1040
33.52912599999999
1040
23.38024
1040
33.341295
1040
23.426807
1070
     1
1040
33.341295
1040
23.426807
1040
33.265367
1040
23.43872
1070
     1
1040
33.265367
1040
23.43872
1040
33.20799199999999
1040
23.44418399999999
1070
     1
1040
33.20799199999999
1040
23.44418399999999
1040
33.150433
1040
23.446185
1070
     1
1040
33.150433
1040
23.446185
1040
33.073206
1040
23.442941
1070
     1
1040
33.073206
1040
23.442941
1040
33.01556
1040
23.43626899999998
1070
     1
1040
33.01556
1040
23.43626899999998
1040
32.958383
1040
23.426252
1070
     1
1040
32.958383
1040
23.426252
1040
32.882791
1040
23.40794999999999
1070
     1
1040
32.882791
1040
23.40794999999999
1040
32.827093
1040
23.390689
1070
     1
1040
32.827093
1040
23.390689
1040
32.772401
1040
23.37047899999999
1070
     1
1040
32.772401
1040
23.37047899999999
1040
32.70162299999999
1040
23.339164
1070
     1
1040
32.70162299999999
1040
23.339164
1040
32.650176
1040
23.312245
1070
     1
1040
32.650176
1040
23.312245
1040
32.600378
1040
23.2823
1070
     1
1040
32.600378
1040
23.2823
1040
32.53744099999998
1040
23.23798
1070
     1
1040
32.53744099999998
1040
23.23798
1040
32.478372
1040
23.188413
1070
     1
1040
32.478372
1040
23.188413
1040
32.423769
1040
23.133776
1070
     1
1040
32.423769
1040
23.133776
1040
32.37422999999999
1040
23.07424699999998
1070
     1
1040
32.37422999999999
1040
23.07424699999998
1040
32.330353
1040
23.010003
1070
     1
1040
32.330353
1040
23.010003
1040
32.29281799999998
1040
22.941394
1070
     1
1040
32.29281799999998
1040
22.941394
1040
32.26252099999999
1040
22.869246
1070
     1
1040
32.26252099999999
1040
22.869246
1040
32.250396
1040
22.832155
1070
     1
1040
32.250396
1040
22.832155
1040
32.24044899999999
1040
22.794552
1070
     1
1040
32.24044899999999
1040
22.794552
1040
32.23280499999999
1040
22.75656099999999
1070
     1
1040
32.23280499999999
1040
22.75656099999999
1040
32.22758599999998
1040
22.71830599999999
1070
     1
1040
32.22758599999998
1040
22.71830599999999
1040
32.22491699999999
1040
22.67991199999999
1070
     1
1040
32.22491699999999
1040
22.67991199999999
1040
32.224919
1040
22.641503
1070
     1
1040
32.224919
1040
22.641503
1040
32.227693
1040
22.60294
1070
     1
1040
32.227693
1040
22.60294
1040
32.233111
1040
22.56461799999998
1070
     1
1040
32.233111
1040
22.56461799999998
1040
32.24098099999999
1040
22.526667
1070
     1
1040
32.24098099999999
1040
22.526667
1040
32.251114
1040
22.48921699999999
1070
     1
1040
32.251114
1040
22.48921699999999
1040
32.263318
1040
22.4524
1070
     1
1040
32.263318
1040
22.4524
1040
32.29364499999999
1040
22.380425
1070
     1
1040
32.29364499999999
1040
22.380425
1040
32.321048
1040
22.328706
1070
     1
1040
32.321048
1040
22.328706
1040
32.35215399999999
1040
22.2791
1070
     1
1040
32.35215399999999
1040
22.2791
1040
32.398586
1040
22.217113
1070
     1
1040
32.398586
1040
22.217113
1040
32.437235
1040
22.173772
1070
     1
1040
32.437235
1040
22.173772
1040
32.47906599999998
1040
22.133554
1070
     1
1040
32.47906599999998
1040
22.133554
1040
32.539186
1040
22.085487
1070
     1
1040
32.539186
1040
22.085487
1040
32.587212
1040
22.05335499999999
1070
     1
1040
32.587212
1040
22.05335499999999
1040
32.637257
1040
22.024481
1070
     1
1040
32.637257
1040
22.024481
1040
32.707048
1040
21.990519
1070
     1
1040
32.707048
1040
21.990519
1040
32.81564799999999
1040
21.948581
1070
     1
1040
32.81564799999999
1040
21.948581
1040
32.889663
1040
21.925699
1070
     1
1040
32.889663
1040
21.925699
1040
33.002738
1040
21.899168
1070
     1
1040
33.002738
1040
21.899168
1040
33.078914
1040
21.887245
1070
     1
1040
33.078914
1040
21.887245
1040
33.19419899999999
1040
21.878646
1070
     1
1040
33.19419899999999
1040
21.878646
1040
33.27146299999999
1040
21.879509
1070
     1
1040
33.27146299999999
1040
21.879509
1040
33.386902
1040
21.89089999999999
1070
     1
1040
33.386902
1040
21.89089999999999
1040
33.46279
1040
21.905127
1070
     1
1040
33.46279
1040
21.905127
1040
33.537631
1040
21.924554
1070
     1
1040
33.537631
1040
21.924554
1040
33.611002
1040
21.94904699999999
1070
     1
1040
33.611002
1040
21.94904699999999
1040
33.68247699999999
1040
21.978473
1070
     1
1040
33.68247699999999
1040
21.978473
1040
33.751634
1040
22.01269799999999
1070
     1
1040
33.751634
1040
22.01269799999999
1040
33.81849899999998
1040
22.05184599999999
1070
     1
1040
33.81849899999998
1040
22.05184599999999
1040
33.91321
1040
22.119126
1070
     1
1040
33.91321
1040
22.119126
1040
33.972146
1040
22.16959899999999
1070
     1
1040
33.972146
1040
22.16959899999999
1040
34.013325
1040
22.210664
1070
     1
1040
34.013325
1040
22.210664
1040
34.05119699999998
1040
22.254741
1070
     1
1040
34.05119699999998
1040
22.254741
1040
34.07423699999998
1040
22.285782
1070
     1
1040
34.07423699999998
1040
22.285782
1040
34.09545
1040
22.318141
1070
     1
1040
34.09545
1040
22.318141
1040
34.114752
1040
22.351701
1070
     1
1040
34.114752
1040
22.351701
1040
34.13205999999998
1040
22.386344
1070
     1
1040
34.13205999999998
1040
22.386344
1040
34.147289
1040
22.42195399999999
1070
     1
1040
34.147289
1040
22.42195399999999
1040
34.16041099999999
1040
22.458525
1070
     1
1040
34.16041099999999
1040
22.458525
1040
34.171377
1040
22.49579699999999
1070
     1
1040
34.171377
1040
22.49579699999999
1040
34.180205
1040
22.533619
1070
     1
1040
34.180205
1040
22.533619
1040
34.186914
1040
22.571835
1070
     1
1040
34.186914
1040
22.571835
1040
34.19152299999999
1040
22.61029399999999
1070
     1
1040
34.19152299999999
1040
22.61029399999999
1040
34.19152299999999
1040
22.759244
1071
        0
1070
     0
1070
     1
1040
0.0
1040
0.062992
1070
     0
1070
     1
1040
0.7853979999999999
1040
-6.225169999999997
1040
-28.624349
1040
-0.141421
1040
0.141421
1070
     0
1071
        1
1040
-6.225169999999997
1040
-28.624349
1040
0.0
1002
}
  0
SPLINE
  5
5C
330
2
100
AcDbEntity
  8
CARTOUCHE
  6
CONTINUOUS
 62
     4
100
AcDbSpline
210
0.0
220
0.0
230
1.0
 70
     8
 71
     3
 72
    36
 73
    32
 74
    30
 42
0.0000000001
 43
0.0000000001
 44
0.000001
 12
-0.7486966541787443
 22
0.6629127544568397
 32
0.0
 13
0.8109899424984487
 23
0.5850600936368529
 33
0.0
 40
0.0
 40
0.0
 40
0.0
 40
0.0
 40
0.1780761553060498
 40
0.3550416348689506
 40
0.5343448658842012
 40
0.7146560387433967
 40
1.070969089720217
 40
1.425796663898005
 40
1.782601001142065
 40
2.138603895040072
 40
2.494665093696478
 40
2.851054396920096
 40
3.206893011134882
 40
3.563375881356894
 40
3.919393765629776
 40
4.275489247209677
 40
4.631810020557415
 40
4.987968836485984
 40
5.34408136041936
 40
5.700398584840179
 40
6.056403071275464
 40
6.412685561611938
 40
6.768553833375485
 40
7.124993908020171
 40
7.480918575954269
 40
7.8370648916584
 40
8.193226462040989
 40
8.549153485654628
 40
8.905927656882468
 40
9.261828075226128
 40
9.97055756363207
 40
9.97055756363207
 40
9.97055756363207
 40
9.97055756363207
 10
34.19152297621248
 20
24.31990419713182
 30
0.0
 10
34.1470813023236
 20
24.35925384867082
 30
0.0
 10
34.0521719569681
 20
24.43173618392172
 30
0.0
 10
33.88702575613148
 20
24.50226791579082
 30
0.0
 10
33.71305223761584
 20
24.54495714766016
 30
0.0
 10
33.47834937114383
 20
24.58798310564184
 30
0.0
 10
33.18518211493348
 20
24.63800747804683
 30
0.0
 10
32.82899744348543
 20
24.659369294718
 30
0.0
 10
32.47326771695627
 20
24.64621390081768
 30
0.0
 10
32.11757591555201
 20
24.61242870860892
 30
0.0
 10
31.77299300510801
 20
24.5155708841489
 30
0.0
 10
31.44749964423073
 20
24.36660655392596
 30
0.0
 10
31.1577579438396
 20
24.15567801072957
 30
0.0
 10
30.90609576518009
 20
23.90204674026735
 30
0.0
 10
30.69450218406409
 20
23.61346834211755
 30
0.0
 10
30.53862681297708
 20
23.29089603959582
 30
0.0
 10
30.4427778154891
 20
22.9462329884785
 30
0.0
 10
30.40515987073749
 20
22.5896806229232
 30
0.0
 10
30.44352427876861
 20
22.23351817132072
 30
0.0
 10
30.53308941867977
 20
21.88748886639843
 30
0.0
 10
30.68157947778859
 20
21.56148506227442
 30
0.0
 10
30.88917782139148
 20
21.26919473918138
 30
0.0
 10
31.15221374974193
 20
21.02575919463754
 30
0.0
 10
31.4509261633181
 20
20.82973487900219
 30
0.0
 10
31.77615975633121
 20
20.68002671318713
 30
0.0
 10
32.12459920184518
 20
20.59680895475901
 30
0.0
 10
32.48036308610931
 20
20.56921458872082
 30
0.0
 10
32.83672042951042
 20
20.56880350163352
 30
0.0
 10
33.19288790635218
 20
20.5809601887588
 30
0.0
 10
33.6641915214532
 20
20.63797084694978
 30
0.0
 10
33.99993214719605
 20
20.78862716016669
 30
0.0
 10
34.19152297621248
 20
20.92684360711669
 30
0.0
 11
34.19152297621248
 21
24.31990419713182
 31
0.0
 11
34.04814564948316
 21
24.42551803537496
 31
0.0
 11
33.886414432493
 21
24.49734946038967
 31
0.0
 11
33.71305596481814
 21
24.54313679053143
 31
0.0
 11
33.53598457982956
 21
24.57716399139703
 31
0.0
 11
33.18386096308204
 21
24.63164336554592
 31
0.0
 11
32.8297140010732
 21
24.65361067318905
 31
0.0
 11
32.47307470160767
 21
24.64275936909139
 31
0.0
 11
32.11942187052807
 21
24.60192152108414
 31
0.0
 11
31.77626880985488
 21
24.50691864896159
 31
0.0
 11
31.45331806594562
 21
24.35619987525168
 31
0.0
 11
31.16425081659299
 21
24.14868782982736
 31
0.0
 11
30.91268311986691
 21
23.89611360248224
 31
0.0
 11
30.70379325220438
 21
23.60781901266319
 31
0.0
 11
30.54866063637869
 21
23.28729150751013
 31
0.0
 11
30.45247328846812
 21
22.94419894098582
 31
0.0
 11
30.41782044248039
 21
22.58972989255912
 31
0.0
 11
30.4520470898832
 21
22.23526594311771
 31
0.0
 11
30.54294059487364
 21
21.89073675637875
 31
0.0
 11
30.691396483504
 21
21.56716285752306
 31
0.0
 11
30.89849041843911
 21
21.27725022136696
 31
0.0
 11
31.15802450035081
 21
21.0337665401986
 31
0.0
 11
31.45548308742885
 21
20.83737935540596
 31
0.0
 11
31.77997022332717
 21
20.69112453447919
 31
0.0
 11
32.12581407620214
 21
20.60608206244054
 31
0.0
 11
32.48050427697165
 21
20.57374147270578
 31
0.0
 11
32.83641989969535
 21
20.57089422013111
 31
0.0
 11
33.19286980656467
 21
20.58610182742615
 31
0.0
 11
33.54527140198384
 21
20.63588357412756
 31
0.0
 11
34.19152297621248
 21
20.92684360711669
 31
0.0
  0
INSERT
  5
5D
330
2
100
AcDbEntity
  8
CARTOUCHE
  6
CONTINUOUS
 62
     4
100
AcDbBlockReference
  2
*X11
 10
0.0
 20
0.0
 30
0.0
1001
ACAD
1000
HATCH
1002
{
1070
    19
1000
ANSI31
1040
0.062992
1040
0.0
1000
R14_HATCH_DATA
1000
5D
1011
1.0
1021
0.0
1031
0.0
1011
0.0
1021
1.0
1031
0.0
1011
0.0
1021
0.0
1031
1.0
1040
0.0
1010
0.0
1020
0.0
1030
1.0
1000
ANSI31
1070
     0
1070
     0
1071
        1
1071
        1
1071
       12
1070
     1
1040
26.28997299999999
1040
24.508394
1040
26.28997299999999
1040
24.074144
1070
     1
1040
29.89222299999999
1040
23.324553
1040
29.89222299999999
1040
20.63209399999998
1070
     1
1040
29.89222299999999
1040
20.63209399999998
1040
28.108423
1040
20.63209399999998
1070
     1
1040
28.108423
1040
20.63209399999998
1040
28.108423
1040
22.47903399999999
1070
     1
1040
26.28997299999999
1040
22.43349899999999
1040
26.28997299999999
1040
20.63209399999998
1070
     1
1040
26.28997299999999
1040
20.63209399999998
1040
24.494923
1040
20.63209399999998
1070
     1
1040
24.494923
1040
20.63209399999998
1040
24.494923
1040
24.508394
1070
     1
1040
24.494923
1040
24.508394
1040
26.28997299999999
1040
24.508394
1070
     2
1040
28.067403
1040
21.045261
1040
3.511892
1040
1.25441
1040
2.101472999999999
1070
     1
1070
     2
1040
28.675028
1040
23.264873
1040
1.218658
1040
0.048991
1040
1.161443
1070
     1
1070
     2
1040
27.457324
1040
22.47903399999999
1040
0.6511239999999999
1040
0.0
1040
1.695599
1070
     1
1070
     2
1040
27.44381
1040
21.82007899999999
1040
1.306761
1040
1.622502
1040
2.652958
1070
     1
1071
        0
1070
     0
1070
     1
1040
0.0
1040
0.062992
1070
     0
1070
     1
1040
0.7853979999999999
1040
-6.225169999999997
1040
-28.624349
1040
-0.141421
1040
0.141421
1070
     0
1071
        1
1040
-6.225169999999997
1040
-28.624349
1040
0.0
1002
}
  0
LINE
  5
5E
330
2
100
AcDbEntity
  8
CARTOUCHE
  6
CONTINUOUS
 62
     4
100
AcDbLine
 10
23.625973
 20
24.508394
 30
0.0
 11
23.625973
 21
20.63209399999998
 31
0.0
  0
LINE
  5
5F
330
2
100
AcDbEntity
  8
CARTOUCHE
  6
CONTINUOUS
 62
     4
100
AcDbLine
 10
26.28997299999999
 20
20.63209399999998
 30
0.0
 11
26.28997299999999
 21
22.43349899999999
 31
0.0
  0
LINE
  5
60
330
2
100
AcDbEntity
  8
CARTOUCHE
  6
CONTINUOUS
 62
     4
100
AcDbLine
 10
24.494923
 20
24.508394
 30
0.0
 11
24.494923
 21
20.63209399999998
 31
0.0
  0
LINE
  5
61
330
2
100
AcDbEntity
  8
CARTOUCHE
  6
CONTINUOUS
 62
     4
100
AcDbLine
 10
29.89222299999999
 20
20.63209399999998
 30
0.0
 11
29.89222299999999
 21
23.324553
 31
0.0
  0
LINE
  5
62
330
2
100
AcDbEntity
  8
CARTOUCHE
  6
CONTINUOUS
 62
     4
100
AcDbLine
 10
28.108423
 20
22.47903399999999
 30
0.0
 11
28.108423
 21
20.63209399999998
 31
0.0
  0
LINE
  5
63
330
2
100
AcDbEntity
  8
CARTOUCHE
  6
CONTINUOUS
 62
     4
100
AcDbLine
 10
24.494923
 20
20.63209399999998
 30
0.0
 11
26.28997299999999
 21
20.63209399999998
 31
0.0
  0
LINE
  5
64
330
2
100
AcDbEntity
  8
CARTOUCHE
  6
CONTINUOUS
 62
     4
100
AcDbLine
 10
28.108423
 20
20.63209399999998
 30
0.0
 11
29.89222299999999
 21
20.63209399999998
 31
0.0
  0
ARC
  5
65
330
2
100
AcDbEntity
  8
CARTOUCHE
  6
CONTINUOUS
 62
     4
100
AcDbCircle
 10
27.44381
 20
21.82007899999999
 30
0.0
 40
1.306761
100
AcDbArc
 50
92.96251299999999
 51
152.003324
  0
ARC
  5
66
330
2
100
AcDbEntity
  8
CARTOUCHE
  6
CONTINUOUS
 62
     4
100
AcDbCircle
 10
28.067403
 20
21.045261
 30
0.0
 40
3.511892
100
AcDbArc
 50
71.872392
 51
120.4055569999999
  0
LINE
  5
67
330
2
100
AcDbEntity
  8
CARTOUCHE
  6
CONTINUOUS
 62
     4
100
AcDbLine
 10
26.28997299999999
 20
24.508394
 30
0.0
 11
24.494923
 21
24.508394
 31
0.0
  0
LINE
  5
68
330
2
100
AcDbEntity
  8
CARTOUCHE
  6
CONTINUOUS
 62
     4
100
AcDbLine
 10
23.625973
 20
25.834994
 30
0.0
 11
23.625973
 21
24.943094
 31
0.0
  0
LINE
  5
69
330
2
100
AcDbEntity
  8
CARTOUCHE
  6
CONTINUOUS
 62
     4
100
AcDbLine
 10
26.28997299999999
 20
24.074144
 30
0.0
 11
26.28997299999999
 21
24.508394
 31
0.0
  0
ARC
  5
6A
330
2
100
AcDbEntity
  8
CARTOUCHE
  6
CONTINUOUS
 62
     4
100
AcDbCircle
 10
27.457324
 20
22.47903399999999
 30
0.0
 40
0.6511239999999999
100
AcDbArc
 50
0.0
 51
97.150683
  0
ARC
  5
6B
330
2
100
AcDbEntity
  8
CARTOUCHE
  6
CONTINUOUS
 62
     4
100
AcDbCircle
 10
28.675028
 20
23.264873
 30
0.0
 40
1.218658
100
AcDbArc
 50
2.806996999999998
 51
66.54578100000001
  0
LINE
  5
6C
330
2
100
AcDbEntity
  8
CARTOUCHE
  6
CONTINUOUS
 62
     4
100
AcDbLine
 10
34.19152299999999
 20
20.620844
 30
0.0
 11
34.19152299999999
 21
20.926844
 31
0.0
  0
LINE
  5
6D
330
2
100
AcDbEntity
  8
CARTOUCHE
  6
CONTINUOUS
 62
     4
100
AcDbLine
 10
35.986573
 20
25.823744
 30
0.0
 11
35.986573
 21
20.620844
 31
0.0
  0
LINE
  5
6E
330
2
100
AcDbEntity
  8
CARTOUCHE
  6
CONTINUOUS
 62
     4
100
AcDbLine
 10
35.986573
 20
20.620844
 30
0.0
 11
34.19152299999999
 21
20.620844
 31
0.0
  0
LINE
  5
6F
330
2
100
AcDbEntity
  8
CARTOUCHE
  6
CONTINUOUS
 62
     4
100
AcDbLine
 10
34.19152299999999
 20
25.823744
 30
0.0
 11
35.986573
 21
25.823744
 31
0.0
  0
SPLINE
  5
70
330
2
100
AcDbEntity
  8
CARTOUCHE
  6
CONTINUOUS
 62
     4
100
AcDbSpline
210
0.0
220
0.0
230
1.0
 70
     8
 71
     3
 72
    32
 73
    28
 74
    26
 42
0.0000000001
 43
0.0000000001
 44
0.000001
 12
-0.1341089932713914
 22
0.9909665876929119
 32
0.0
 13
0.0921211275959058
 23
0.9957478083583508
 33
0.0
 40
0.0
 40
0.0
 40
0.0
 40
0.0
 40
0.1932870726990335
 40
0.386679245209631
 40
0.5800716448723797
 40
0.7723331336887166
 40
0.9658517963207453
 40
1.159368324722239
 40
1.351211885861723
 40
1.544293516073677
 40
1.738458265495972
 40
1.93176442078681
 40
2.315247530488626
 40
2.698534125382564
 40
2.891496493449481
 40
3.086239187656823
 40
3.279346076389814
 40
3.471494617804939
 40
3.665361350852597
 40
3.858866209618616
 40
4.051424456358025
 40
4.244517019109061
 40
4.629047421486934
 40
4.822526074880364
 40
5.015998230668785
 40
5.208856307653515
 40
5.402319509587275
 40
5.402319509587275
 40
5.402319509587275
 40
5.402319509587275
 10
34.19152297621248
 20
22.75924360711669
 30
0.0
 10
34.18288246463513
 20
22.82309061740926
 30
0.0
 10
34.14699032504411
 20
22.94923083584772
 30
0.0
 10
34.03863119159348
 20
23.1129585674996
 30
0.0
 10
33.88808692217448
 20
23.23750526320151
 30
0.0
 10
33.713903336865
 20
23.32349595013638
 30
0.0
 10
33.52952374823402
 20
23.38166664627399
 30
0.0
 10
33.34290576820264
 20
23.43125923522332
 30
0.0
 10
33.15005934454871
 20
23.45345638096767
 30
0.0
 10
32.95676626530339
 20
23.43192402229585
 30
0.0
 10
32.77056094954623
 20
23.37588613719516
 30
0.0
 10
32.5400564300067
 20
23.25927875203683
 30
0.0
 10
32.30432080538979
 20
23.02895627192542
 30
0.0
 10
32.19918324728943
 20
22.70410853072547
 30
0.0
 10
32.25560999955023
 20
22.44863361631262
 30
0.0
 10
32.34552926468554
 20
22.27538547462596
 30
0.0
 10
32.47312191827226
 20
22.12730573798493
 30
0.0
 10
32.63483114160577
 20
22.01829644308998
 30
0.0
 10
32.81426091781528
 20
21.94472694998748
 30
0.0
 10
33.00144386925828
 20
21.89441488480761
 30
0.0
 10
33.19428298196591
 20
21.87304334806433
 30
0.0
 10
33.45148795617316
 20
21.88934820105486
 30
0.0
 10
33.70119762619979
 20
21.97262952139335
 30
0.0
 10
33.91655360502459
 20
22.11456126477981
 30
0.0
 10
34.05836119423947
 20
22.24858589816441
 30
0.0
 10
34.1563985165342
 20
22.41858974007391
 30
0.0
 10
34.18558229344233
 20
22.54608008734217
 30
0.0
 10
34.19152297621248
 20
22.61029360711668
 30
0.0
 11
34.19152297621248
 21
22.75924360711669
 31
0.0
 11
34.13791895137521
 21
22.94494973500174
 31
0.0
 11
34.03155373353055
 21
23.10646429401778
 31
0.0
 11
33.88383915758775
 21
23.2312882243935
 31
0.0
 11
33.71260018090836
 21
23.31870497950503
 31
0.0
 11
33.52912571204567
 21
23.38024026476581
 31
0.0
 11
33.34129541646134
 21
23.4268066350183
 31
0.0
 11
33.15043306379559
 21
23.44618483007101
 31
0.0
 11
32.95838311054932
 21
23.42625160056325
 31
0.0
 11
32.77240099875644
 21
23.3704787693241
 31
0.0
 11
32.6003783004499
 21
23.2823001555606
 31
0.0
 11
32.3303531106979
 21
23.01000300398823
 31
0.0
 11
32.22491909320101
 21
22.64150286445182
 31
0.0
 11
32.26331822628607
 21
22.45239971642014
 31
0.0
 11
32.35215412813561
 21
22.27909964132739
 31
0.0
 11
32.4790661567678
 21
22.13355370124998
 31
0.0
 11
32.63725672616544
 21
22.02448118124885
 31
0.0
 11
32.81564788989768
 21
21.94858052993353
 31
0.0
 11
33.00273750412712
 21
21.89916786421671
 31
0.0
 11
33.19419909206249
 21
21.87864610808737
 31
0.0
 11
33.38690243953787
 21
21.89090007892743
 31
0.0
 11
33.75163382265728
 21
22.01269765064039
 31
0.0
 11
33.91321018639743
 21
22.11912633605071
 31
0.0
 11
34.05119662359747
 21
22.25474052514755
 31
0.0
 11
34.14728879489485
 21
22.42195449774151
 31
0.0
 11
34.19152297621248
 21
22.61029360711668
 31
0.0
  0
LINE
  5
71
330
2
100
AcDbEntity
  8
CARTOUCHE
  6
CONTINUOUS
 62
     4
100
AcDbLine
 10
34.19152299999999
 20
22.61029399999999
 30
0.0
 11
34.19152299999999
 21
22.759244
 31
0.0
  0
LINE
  5
72
330
2
100
AcDbEntity
  8
CARTOUCHE
  6
CONTINUOUS
 62
     4
100
AcDbLine
 10
34.19152299999999
 20
24.319904
 30
0.0
 11
34.19152299999999
 21
25.823744
 31
0.0
  0
LINE
  5
73
330
2
100
AcDbEntity
  8
CARTOUCHE
  6
CONTINUOUS
 62
     4
100
AcDbLine
 10
38.364823
 20
23.079194
 30
0.0
 11
39.15412299999999
 21
23.079194
 31
0.0
  0
LINE
  5
74
330
2
100
AcDbEntity
  8
CARTOUCHE
  6
CONTINUOUS
 62
     4
100
AcDbLine
 10
39.05107299999999
 20
22.244444
 30
0.0
 11
38.364823
 21
22.244444
 31
0.0
  0
LINE
  5
75
330
2
100
AcDbEntity
  8
CARTOUCHE
  6
CONTINUOUS
 62
     4
100
AcDbLine
 10
39.15412299999999
 20
22.244444
 30
0.0
 11
39.05107299999999
 21
22.244444
 31
0.0
  0
LINE
  5
76
330
2
100
AcDbEntity
  8
CARTOUCHE
  6
CONTINUOUS
 62
     7
100
AcDbLine
 10
50.000001
 20
36.845393
 30
0.0
 11
50.000001
 21
5.000041
 31
0.0
  0
INSERT
  5
77
330
2
100
AcDbEntity
  8
CARTOUCHE
  6
CONTINUOUS
 62
     4
100
AcDbBlockReference
  2
*X12
 10
0.0
 20
0.0
 30
0.0
1001
ACAD
1000
HATCH
1002
{
1070
    19
1000
ANSI31
1040
0.062992
1040
0.0
1000
R14_HATCH_DATA
1000
77
1011
1.0
1021
0.0
1031
0.0
1011
0.0
1021
1.0
1031
0.0
1011
0.0
1021
0.0
1031
1.0
1040
0.0
1010
0.0
1020
0.0
1030
1.0
1000
ANSI31
1070
     0
1070
     0
1071
        1
1071
        1
1071
       78
1070
     1
1040
42.732973
1040
24.508394
1040
42.732973
1040
20.63209399999998
1070
     1
1040
42.732973
1040
20.63209399999998
1040
44.459623
1040
20.63209399999998
1070
     1
1040
44.459623
1040
20.63209399999998
1040
44.459623
1040
22.782194
1070
     1
1040
44.459623
1040
22.782194
1040
44.46348799999999
1040
22.82556299999999
1070
     1
1040
44.46348799999999
1040
22.82556299999999
1040
44.470946
1040
22.86858599999999
1070
     1
1040
44.470946
1040
22.86858599999999
1040
44.48187899999999
1040
22.91099099999999
1070
     1
1040
44.48187899999999
1040
22.91099099999999
1040
44.49617199999997
1040
22.952504
1070
     1
1040
44.49617199999997
1040
22.952504
1040
44.513707
1040
22.992851
1070
     1
1040
44.513707
1040
22.992851
1040
44.534386
1040
23.031755
1070
     1
1040
44.534386
1040
23.031755
1040
44.55812199999999
1040
23.06881399999999
1070
     1
1040
44.55812199999999
1040
23.06881399999999
1040
44.58484099999998
1040
23.103624
1070
     1
1040
44.58484099999998
1040
23.103624
1040
44.61447299999998
1040
23.13578
1070
     1
1040
44.61447299999998
1040
23.13578
1040
44.646943
1040
23.164878
1070
     1
1040
44.646943
1040
23.164878
1040
44.682109
1040
23.190587
1070
     1
1040
44.682109
1040
23.190587
1040
44.719626
1040
23.212933
1070
     1
1040
44.719626
1040
23.212933
1040
44.759083
1040
23.232012
1070
     1
1040
44.759083
1040
23.232012
1040
44.80006699999999
1040
23.24791999999999
1070
     1
1040
44.80006699999999
1040
23.24791999999999
1040
44.84216599999998
1040
23.26075499999999
1070
     1
1040
44.84216599999998
1040
23.26075499999999
1040
44.88545499999999
1040
23.27065499999999
1070
     1
1040
44.88545499999999
1040
23.27065499999999
1040
44.92924099999998
1040
23.277344
1070
     1
1040
44.92924099999998
1040
23.277344
1040
44.973307
1040
23.280649
1070
     1
1040
44.973307
1040
23.280649
1040
45.017433
1040
23.280401
1070
     1
1040
45.017433
1040
23.280401
1040
45.06139899999999
1040
23.276428
1070
     1
1040
45.06139899999999
1040
23.276428
1040
45.10431899999999
1040
23.26873599999998
1070
     1
1040
45.10431899999999
1040
23.26873599999998
1040
45.146471
1040
23.257294
1070
     1
1040
45.146471
1040
23.257294
1040
45.18745599999999
1040
23.24213599999999
1070
     1
1040
45.18745599999999
1040
23.24213599999999
1040
45.226873
1040
23.22329299999999
1070
     1
1040
45.226873
1040
23.22329299999999
1040
45.264321
1040
23.200797
1070
     1
1040
45.264321
1040
23.200797
1040
45.29950399999999
1040
23.174642
1070
     1
1040
45.29950399999999
1040
23.174642
1040
45.331947
1040
23.145119
1070
     1
1040
45.331947
1040
23.145119
1040
45.36129099999999
1040
23.11249899999999
1070
     1
1040
45.36129099999999
1040
23.11249899999999
1040
45.38718099999999
1040
23.077054
1070
     1
1040
45.38718099999999
1040
23.077054
1040
45.409257
1040
23.03905599999999
1070
     1
1040
45.409257
1040
23.03905599999999
1040
45.427129
1040
22.999011
1070
     1
1040
45.427129
1040
22.999011
1040
45.440732
1040
22.957277
1070
     1
1040
45.440732
1040
22.957277
1040
45.44993
1040
22.91442299999999
1070
     1
1040
45.44993
1040
22.91442299999999
1040
45.45458899999998
1040
22.871022
1070
     1
1040
45.45458899999998
1040
22.871022
1040
45.455174
1040
22.849294
1070
     1
1040
45.455174
1040
22.849294
1040
45.45457299999998
1040
22.827644
1070
     1
1040
45.45457299999998
1040
22.827644
1040
45.45457299999998
1040
22.58779399999999
1070
     1
1040
45.45457299999998
1040
22.58779399999999
1040
47.28382299999998
1040
22.58779399999999
1070
     1
1040
47.28382299999998
1040
22.58779399999999
1040
47.30048
1040
22.741901
1070
     1
1040
47.30048
1040
22.741901
1040
47.308034
1040
22.896764
1070
     1
1040
47.308034
1040
22.896764
1040
47.30622299999999
1040
23.051921
1070
     1
1040
47.30622299999999
1040
23.051921
1040
47.295648
1040
23.206716
1070
     1
1040
47.295648
1040
23.206716
1040
47.276908
1040
23.360972
1070
     1
1040
47.276908
1040
23.360972
1040
47.2499
1040
23.514097
1070
     1
1040
47.2499
1040
23.514097
1040
47.221874
1040
23.635072
1070
     1
1040
47.221874
1040
23.635072
1040
47.19592
1040
23.724445
1070
     1
1040
47.19592
1040
23.724445
1040
47.16467999999998
1040
23.81204899999999
1070
     1
1040
47.16467999999998
1040
23.81204899999999
1040
47.113499
1040
23.92525
1070
     1
1040
47.113499
1040
23.92525
1040
47.067867
1040
24.006615
1070
     1
1040
47.067867
1040
24.006615
1040
47.016057
1040
24.0843
1070
     1
1040
47.016057
1040
24.0843
1040
46.97801799999999
1040
24.133848
1070
     1
1040
46.97801799999999
1040
24.133848
1040
46.937287
1040
24.181208
1070
     1
1040
46.937287
1040
24.181208
1040
46.893917
1040
24.226097
1070
     1
1040
46.893917
1040
24.226097
1040
46.847963
1040
24.26823
1070
     1
1040
46.847963
1040
24.26823
1040
46.799476
1040
24.307326
1070
     1
1040
46.799476
1040
24.307326
1040
46.74884699999998
1040
24.34298099999999
1070
     1
1040
46.74884699999998
1040
24.34298099999999
1040
46.696087
1040
24.37549699999999
1070
     1
1040
46.696087
1040
24.37549699999999
1040
46.613657
1040
24.418703
1070
     1
1040
46.613657
1040
24.418703
1040
46.528242
1040
24.455664
1070
     1
1040
46.528242
1040
24.455664
1040
46.410285
1040
24.496534
1070
     1
1040
46.410285
1040
24.496534
1040
46.22887999999998
1040
24.542872
1070
     1
1040
46.22887999999998
1040
24.542872
1040
46.106971
1040
24.566075
1070
     1
1040
46.106971
1040
24.566075
1040
45.92238599999999
1040
24.587821
1070
     1
1040
45.92238599999999
1040
24.587821
1040
45.798504
1040
24.591816
1070
     1
1040
45.798504
1040
24.591816
1040
45.61256799999998
1040
24.583703
1070
     1
1040
45.61256799999998
1040
24.583703
1040
45.457926
1040
24.566274
1070
     1
1040
45.457926
1040
24.566274
1040
45.304716
1040
24.539482
1070
     1
1040
45.304716
1040
24.539482
1040
45.183805
1040
24.51113499999999
1070
     1
1040
45.183805
1040
24.51113499999999
1040
45.00579899999999
1040
24.45603
1070
     1
1040
45.00579899999999
1040
24.45603
1040
44.89043399999999
1040
24.410518
1070
     1
1040
44.89043399999999
1040
24.410518
1040
44.777817
1040
24.358198
1070
     1
1040
44.777817
1040
24.358198
1040
44.668264
1040
24.29958
1070
     1
1040
44.668264
1040
24.29958
1040
44.459623
1040
24.165494
1070
     1
1040
44.459623
1040
24.165494
1040
44.459623
1040
24.508394
1070
     1
1040
44.459623
1040
24.508394
1040
42.732973
1040
24.508394
1071
        0
1070
     0
1070
     1
1040
0.0
1040
0.062992
1070
     0
1070
     1
1040
0.7853979999999999
1040
-6.225169999999997
1040
-28.624349
1040
-0.141421
1040
0.141421
1070
     0
1071
        1
1040
-6.225169999999997
1040
-28.624349
1040
0.0
1002
}
  0
LINE
  5
78
330
2
100
AcDbEntity
  8
CARTOUCHE
  6
CONTINUOUS
 62
     4
100
AcDbLine
 10
42.732973
 20
20.63209399999998
 30
0.0
 11
42.732973
 21
24.508394
 31
0.0
  0
LINE
  5
79
330
2
100
AcDbEntity
  8
CARTOUCHE
  6
CONTINUOUS
 62
     4
100
AcDbLine
 10
44.459623
 20
22.782194
 30
0.0
 11
44.459623
 21
20.63209399999998
 31
0.0
  0
LINE
  5
7A
330
2
100
AcDbEntity
  8
CARTOUCHE
  6
CONTINUOUS
 62
     4
100
AcDbLine
 10
44.459623
 20
20.63209399999998
 30
0.0
 11
42.732973
 21
20.63209399999998
 31
0.0
  0
LINE
  5
7B
330
2
100
AcDbEntity
  8
CARTOUCHE
  6
CONTINUOUS
 62
     4
100
AcDbLine
 10
42.732973
 20
24.508394
 30
0.0
 11
44.459623
 21
24.508394
 31
0.0
  0
LINE
  5
7C
330
2
100
AcDbEntity
  8
CARTOUCHE
  6
CONTINUOUS
 62
     4
100
AcDbLine
 10
40.34302299999999
 20
21.855644
 30
0.0
 11
42.10387299999999
 21
21.855644
 31
0.0
  0
SPLINE
  5
7D
330
2
100
AcDbEntity
  8
CARTOUCHE
  6
CONTINUOUS
 62
     4
100
AcDbSpline
210
0.0
220
0.0
230
1.0
 70
     8
 71
     3
 72
    20
 73
    16
 74
    14
 42
0.0000000001
 43
0.0000000001
 44
0.000001
 12
0.1358608544273129
 22
0.9907279284618358
 32
0.0
 13
-0.8123777522852272
 23
-0.583131535412039
 33
0.0
 40
0.0
 40
0.0
 40
0.0
 40
0.0
 40
0.3099167376574337
 40
0.6201162120086046
 40
0.9308832229227103
 40
1.24078258036954
 40
1.550958571055996
 40
1.861841472929396
 40
2.1709890327011
 40
2.482794313402609
 40
2.792566681426365
 40
3.102412009711694
 40
3.413423418356814
 40
3.723770860917999
 40
4.342414092774915
 40
4.342414092774915
 40
4.342414092774915
 40
4.342414092774915
 10
47.28382297621251
 20
22.58779360711669
 30
0.0
 10
47.29785816047233
 20
22.69014132961502
 30
0.0
 10
47.31442324043968
 20
22.89676966285277
 30
0.0
 10
47.300929655681
 20
23.20747621588524
 30
0.0
 10
47.25565430040702
 20
23.51474442121903
 30
0.0
 10
47.17620425041039
 20
23.8164165132538
 30
0.0
 10
47.027328170138
 20
24.09240856669955
 30
0.0
 10
46.81020864916884
 20
24.3207391034987
 30
0.0
 10
46.53096591325815
 20
24.46673549232285
 30
0.0
 10
46.23076181269931
 20
24.54812138519134
 30
0.0
 10
45.9230282829723
 20
24.59724610143176
 30
0.0
 10
45.61155007781771
 20
24.58971042935069
 30
0.0
 10
45.30365677773262
 20
24.54593296501846
 30
0.0
 10
44.90384925448965
 20
24.4364940540321
 30
0.0
 10
44.62714697559995
 20
24.28574373300502
 30
0.0
 10
44.45962297621249
 20
24.16549360711669
 30
0.0
 11
47.28382297621251
 21
22.58779360711669
 31
0.0
 11
47.3080338234398
 21
22.89676387907709
 31
0.0
 11
47.29564801913904
 21
23.20671600883971
 31
0.0
 11
47.24989999164073
 21
23.51409730955235
 31
0.0
 11
47.16468005782959
 21
23.81204898160464
 31
0.0
 11
47.01605698726017
 21
24.08429955967585
 31
0.0
 11
46.79947591694868
 21
24.30732619143858
 31
0.0
 11
46.52824151124928
 21
24.45566419975128
 31
0.0
 11
46.22887996193931
 21
24.5428722112578
 31
0.0
 11
45.92238599753446
 21
24.58782115591738
 31
0.0
 11
45.61256799206709
 21
24.58370341795764
 31
0.0
 11
45.3047164351297
 21
24.53948194901727
 31
0.0
 11
45.00579935951135
 21
24.4560304659967
 31
0.0
 11
44.45962297621249
 21
24.16549360711669
 31
0.0
  0
LINE
  5
7E
330
2
100
AcDbEntity
  8
CARTOUCHE
  6
CONTINUOUS
 62
     4
100
AcDbLine
 10
47.28382299999998
 20
22.58779399999999
 30
0.0
 11
45.45457299999998
 21
22.58779399999999
 31
0.0
  0
SPLINE
  5
7F
330
2
100
AcDbEntity
  8
CARTOUCHE
  6
CONTINUOUS
 62
     4
100
AcDbSpline
210
0.0
220
0.0
230
1.0
 70
     8
 71
     3
 72
    14
 73
    10
 74
     8
 42
0.0000000001
 43
0.0000000001
 44
0.000001
 12
0.0554704849890783
 22
0.9984603273516061
 32
0.0
 13
-0.0466631639368038
 23
-0.9989106812580427
 33
0.0
 40
0.0
 40
0.0
 40
0.0
 40
0.0
 40
0.2162139074022218
 40
0.4333924847994246
 40
0.6499495281904864
 40
0.8697428518080867
 40
1.087237595645037
 40
1.304827608132228
 40
1.522315904263424
 40
1.522315904263424
 40
1.522315904263424
 40
1.522315904263424
 10
45.4545729762125
 20
22.82764360711668
 30
0.0
 10
45.45857080631416
 20
22.89960394337094
 30
0.0
 10
45.42640845178715
 20
23.04880719341103
 30
0.0
 10
45.27439530019218
 20
23.2158047932794
 30
0.0
 10
45.06187441261874
 20
23.29256560222702
 30
0.0
 10
44.83996045298545
 20
23.27349163465661
 30
0.0
 10
44.63539403875084
 20
23.17927816693098
 30
0.0
 10
44.50069250367362
 20
22.99887923670179
 30
0.0
 10
44.46300587355137
 20
22.85461073446803
 30
0.0
 10
44.45962297621247
 20
22.78219360711668
 30
0.0
 11
45.4545729762125
 21
22.82764360711668
 31
0.0
 11
45.40925657835891
 21
23.03905624439607
 31
0.0
 11
45.2643208173426
 21
23.20079736409236
 31
0.0
 11
45.06139949806013
 21
23.27642755731508
 31
0.0
 11
44.84216559415751
 21
23.2607549970325
 31
0.0
 11
44.64694347697345
 21
23.16487840855711
 31
0.0
 11
44.51370731348553
 21
22.99285063220138
 31
0.0
 11
44.45962297621247
 21
22.78219360711668
 31
0.0
  0
LINE
  5
80
330
2
100
AcDbEntity
  8
CARTOUCHE
  6
CONTINUOUS
 62
     4
100
AcDbLine
 10
45.45457299999998
 20
22.58779399999999
 30
0.0
 11
45.45457299999998
 21
22.827644
 31
0.0
  0
LINE
  5
81
330
2
100
AcDbEntity
  8
CARTOUCHE
  6
CONTINUOUS
 62
     4
100
AcDbLine
 10
44.459623
 20
24.508394
 30
0.0
 11
44.459623
 21
24.165494
 31
0.0
  0
TEXT
  5
82
330
2
100
AcDbEntity
  8
CARTOUCHE
  6
CONTINUOUS
 62
     1
100
AcDbText
 10
75.18069298499402
 20
11.77627904793473
 30
0.0
 40
2.1
  1
1
 50
359.9999079999998
 41
0.8
  7
FINDER
 72
     1
 11
75.833326
 21
11.776278
 31
0.0
100
AcDbText
  0
TEXT
  5
83
330
2
100
AcDbEntity
  8
CARTOUCHE
  6
CONTINUOUS
 62
     7
100
AcDbText
 10
73.48571344884341
 20
16.62430476956831
 30
0.0
 40
1.8
  1
REV.
 50
359.9999079999998
 41
0.8
  7
FINDER
 72
     1
 11
75.833326
 21
16.624301
 31
0.0
100
AcDbText
  0
LINE
  5
84
330
2
100
AcDbEntity
  8
CARTOUCHE
  6
CONTINUOUS
 62
     7
100
AcDbLine
 10
101.666651
 20
20.00296599999998
 30
0.0
 11
101.666651
 21
10.001024
 31
0.0
  0
TEXT
  5
53A
330
2
100
AcDbEntity
  8
CARTOUCHE
  6
CONTINUOUS
 62
     7
100
AcDbText
 10
119.6202638513061
 20
32.43596665250083
 30
0.0
 40
1.8
  1
PRODUCT TYPE
 50
359.9999079999998
 41
0.8
  7
FINDER
 72
     1
 11
127.499991
 21
32.43595399999998
 31
0.0
100
AcDbText
  0
TEXT
  5
53B
330
2
100
AcDbEntity
  8
CARTOUCHE
  6
CONTINUOUS
 62
     1
100
AcDbText
 10
123.7706594856801
 20
22.43595998819848
 30
0.0
 40
3.0
  1
9902
 50
359.9999079999998
 41
0.8
  7
FINDER
 72
     1
 11
127.499991
 21
22.435954
 31
0.0
100
AcDbText
  0
TEXT
  5
53C
330
2
100
AcDbEntity
  8
CARTOUCHE
  6
CONTINUOUS
 62
     1
100
AcDbText
 10
121.6268528526677
 20
11.77620843049256
 30
0.0
 40
2.1
  1
20/06/2007
 50
359.9999079999998
 41
0.8
  7
FINDER
 72
     1
 11
127.4999769999999
 21
11.776199
 31
0.0
100
AcDbText
  0
TEXT
  5
53D
330
2
100
AcDbEntity
  8
CARTOUCHE
  6
CONTINUOUS
 62
     7
100
AcDbText
 10
124.8174121978205
 20
16.62422630740211
 30
0.0
 40
1.8
  1
DATE
 50
359.9999079999998
 41
0.8
  7
FINDER
 72
     1
 11
127.4999769999999
 21
16.62422199999999
 31
0.0
100
AcDbText
  0
LINE
  5
53E
330
2
100
AcDbEntity
  8
CARTOUCHE
  6
CONTINUOUS
 62
     7
100
AcDbLine
 10
153.33333
 20
20.002887
 30
0.0
 11
153.33333
 21
10.000945
 31
0.0
  0
TEXT
  5
53F
330
2
100
AcDbEntity
  8
CARTOUCHE
  6
CONTINUOUS
 62
     1
100
AcDbText
 10
177.5353589563458
 20
11.77612261937681
 30
0.0
 40
2.1
  1
1:1
 50
359.9999079999998
 41
0.8
  7
FINDER
 72
     1
 11
179.1666549999999
 21
11.77612
 31
0.0
100
AcDbText
  0
TEXT
  5
540
330
2
100
AcDbEntity
  8
CARTOUCHE
  6
CONTINUOUS
 62
     7
100
AcDbText
 10
175.8682102523916
 20
16.62414829632234
 30
0.0
 40
1.8
  1
SCALE
 50
359.9999079999998
 41
0.8
  7
FINDER
 72
     1
 11
179.1666549999999
 21
16.624143
 31
0.0
100
AcDbText
  0
LINE
  5
2725
330
2
100
AcDbEntity
  8
9
  6
CONTINUOUS
 62
     9
100
AcDbLine
 10
116.1274554221077
 20
159.3314708057243
 30
0.0
 11
117.8774554221079
 21
159.3314708057243
 31
0.0
  0
LINE
  5
2726
330
2
100
AcDbEntity
  8
9
  6
CONTINUOUS
 62
     9
100
AcDbLine
 10
117.3774554221079
 20
158.8314708057243
 30
0.0
 11
117.8774554221079
 21
159.3314708057243
 31
0.0
  0
LINE
  5
2727
330
2
100
AcDbEntity
  8
9
  6
CONTINUOUS
 62
     9
100
AcDbLine
 10
118.3774554221079
 20
162.8314708057243
 30
0.0
 11
112.3774554221079
 21
162.8314708057243
 31
0.0
  0
ARC
  5
2728
330
2
100
AcDbEntity
  8
DRAW
  6
CONTINUOUS
100
AcDbCircle
 10
115.5774554221079
 20
187.3314708057241
 30
0.0
 40
6.5
100
AcDbArc
 50
0.0
 51
90.0
  0
LINE
  5
2729
330
2
100
AcDbEntity
  8
DRAW
  6
CONTINUOUS
100
AcDbLine
 10
83.54201852859819
 20
162.489470805724
 30
0.0
 11
83.54201852859819
 21
192.6894708057241
 31
0.0
  0
LINE
  5
272A
330
2
100
AcDbEntity
  8
DRAW
  6
CONTINUOUS
100
AcDbLine
 10
82.74201852859818
 20
193.489470805724
 30
0.0
 11
82.74201852859818
 21
163.2894708057243
 31
0.0
  0
LINE
  5
272B
330
2
100
AcDbEntity
  8
DRAW
  6
CONTINUOUS
100
AcDbLine
 10
111.5774554221079
 20
164.4314708057243
 30
0.0
 11
111.5774554221079
 21
193.8314708057242
 31
0.0
  0
LINE
  5
272C
330
2
100
AcDbEntity
  8
DRAW
  6
CONTINUOUS
100
AcDbLine
 10
111.5774554221079
 20
164.4314708057243
 30
0.0
 11
111.5774554221079
 21
192.2314708057241
 31
0.0
  0
LINE
  5
272E
330
2
100
AcDbEntity
  8
DRAW
  6
CONTINUOUS
100
AcDbLine
 10
68.84201852859821
 20
193.4894708057241
 30
0.0
 11
68.84201852859821
 21
163.2894708057243
 31
0.0
  0
LINE
  5
272F
330
2
100
AcDbEntity
  8
DRAW
  6
CONTINUOUS
100
AcDbLine
 10
68.04201852859819
 20
162.489470805724
 30
0.0
 11
68.04201852859819
 21
192.6894708057241
 31
0.0
  0
LINE
  5
2730
330
2
100
AcDbEntity
  8
DRAW
  6
CONTINUOUS
100
AcDbLine
 10
69.82011452859817
 20
156.989470805724
 30
0.0
 11
70.82011452859818
 21
156.989470805724
 31
0.0
  0
LINE
  5
2731
330
2
100
AcDbEntity
  8
9
  6
CONTINUOUS
 62
     9
100
AcDbLine
 10
68.84201852859821
 20
163.2894708057243
 30
0.0
 11
82.74201852859818
 21
163.2894708057243
 31
0.0
  0
LINE
  5
2732
330
2
100
AcDbEntity
  8
9
  6
CONTINUOUS
 62
     9
100
AcDbLine
 10
68.04201852859819
 20
162.489470805724
 30
0.0
 11
76.6420185285982
 21
162.489470805724
 31
0.0
  0
LINE
  5
2733
330
2
100
AcDbEntity
  8
9
  6
CONTINUOUS
 62
     9
100
AcDbLine
 10
68.04201852859819
 20
124.9361172125355
 30
0.0
 11
83.54201852859819
 21
124.9361172125355
 31
0.0
  0
LINE
  5
2734
330
2
100
AcDbEntity
  8
9
  6
CONTINUOUS
 62
     9
100
AcDbLine
 10
82.74201852859818
 20
135.4361172125355
 30
0.0
 11
68.84201852859821
 21
135.4361172125355
 31
0.0
  0
LINE
  5
2735
330
2
100
AcDbEntity
  8
9
  6
CONTINUOUS
 62
     9
100
AcDbLine
 10
82.74201852859818
 20
124.9361172125355
 30
0.0
 11
68.84201852859821
 21
124.9361172125355
 31
0.0
  0
DIMENSION
  5
2736
330
2
100
AcDbEntity
  8
DIM
  6
CONTINUOUS
100
AcDbDimension
  2
*D30
 10
68.04201852859819
 20
142.2161172125354
 30
0.0
 11
75.79201852859819
 21
142.2161172125354
 31
0.0
 70
   160
  1
<>
  3
DSTYLE2
100
AcDbAlignedDimension
 13
83.54201852859819
 23
134.6361172125355
 33
0.0
 14
68.04201852859819
 24
134.6361172125355
 34
0.0
 50
180.0
100
AcDbRotatedDimension
  0
DIMENSION
  5
2737
330
2
100
AcDbEntity
  8
DIM
  6
CONTINUOUS
100
AcDbDimension
  2
*D31
 10
58.98401852859819
 20
135.4361172125355
 30
0.0
 11
58.98401852859818
 21
128.3861172125355
 31
0.0
 70
   160
  1
<>
  3
DSTYLE2
100
AcDbAlignedDimension
 13
75.79201852859819
 23
121.3361172125356
 33
0.0
 14
68.84201852859821
 24
135.4361172125355
 34
0.0
 50
90.0
100
AcDbRotatedDimension
  0
DIMENSION
  5
2738
330
2
100
AcDbEntity
  8
DIM
  6
CONTINUOUS
100
AcDbDimension
  2
*D32
 10
63.98601852859821
 20
135.4361172125355
 30
0.0
 11
63.98601852859819
 21
130.1861172125355
 31
0.0
 70
   160
  1
<>
  3
DSTYLE2
100
AcDbAlignedDimension
 13
68.84201852859821
 23
124.9361172125355
 33
0.0
 14
68.84201852859821
 24
135.4361172125355
 34
0.0
 50
90.0
100
AcDbRotatedDimension
  0
LINE
  5
2739
330
2
100
AcDbEntity
  8
9
  6
CONTINUOUS
 62
     9
100
AcDbLine
 10
68.04201852859819
 20
134.6361172125355
 30
0.0
 11
68.04201852859819
 21
124.9361172125355
 31
0.0
  0
ARC
  5
273A
330
2
100
AcDbEntity
  8
9
  6
CONTINUOUS
 62
     9
100
AcDbCircle
 10
68.84201852859821
 20
134.6361172125355
 30
0.0
 40
0.8
100
AcDbArc
 50
90.0
 51
180.0
  0
POINT
  5
273B
330
2
100
AcDbEntity
  8
255
  6
CONTINUOUS
 62
     3
100
AcDbPoint
 10
68.84201852859821
 20
135.4361172125355
 30
0.0
  0
LINE
  5
273C
330
2
100
AcDbEntity
  8
DRAW
  6
CONTINUOUS
100
AcDbLine
 10
69.32011452859817
 20
157.989470805724
 30
0.0
 11
69.32011452859817
 21
162.489470805724
 31
0.0
  0
LINE
  5
273D
330
2
100
AcDbEntity
  8
DRAW
  6
CONTINUOUS
100
AcDbLine
 10
69.32011452859817
 20
157.989470805724
 30
0.0
 11
69.82011452859817
 21
156.989470805724
 31
0.0
  0
LINE
  5
273E
330
2
100
AcDbEntity
  8
9
  6
CONTINUOUS
 62
     9
100
AcDbLine
 10
68.04201852859819
 20
164.0894708057243
 30
0.0
 11
68.84201852859821
 21
164.0894708057243
 31
0.0
  0
LINE
  5
273F
330
2
100
AcDbEntity
  8
9
  6
CONTINUOUS
 62
     9
100
AcDbLine
 10
69.04201852859819
 20
162.489470805724
 30
0.0
 11
69.04201852859819
 21
163.2894708057243
 31
0.0
  0
LINE
  5
2740
330
2
100
AcDbEntity
  8
9
  6
CONTINUOUS
 62
     9
100
AcDbLine
 10
75.79201852859819
 20
127.9861172125354
 30
0.0
 11
80.29201852859818
 21
128.9861172125355
 31
0.0
  0
LINE
  5
2741
330
2
100
AcDbEntity
  8
9
  6
CONTINUOUS
 62
     9
100
AcDbLine
 10
80.29201852859818
 20
128.9861172125355
 30
0.0
 11
75.79201852859819
 21
129.9861172125355
 31
0.0
  0
LINE
  5
2742
330
2
100
AcDbEntity
  8
9
  6
CONTINUOUS
 62
     9
100
AcDbLine
 10
71.29201852859819
 20
128.9861172125355
 30
0.0
 11
75.79201852859819
 21
127.9861172125354
 31
0.0
  0
LINE
  5
2743
330
2
100
AcDbEntity
  8
9
  6
CONTINUOUS
 62
     9
100
AcDbLine
 10
74.8920185285982
 20
124.9361172125355
 30
0.0
 11
74.8920185285982
 21
121.8361172125355
 31
0.0
  0
LINE
  5
2744
330
2
100
AcDbEntity
  8
9
  6
CONTINUOUS
 62
     9
100
AcDbLine
 10
76.6920185285982
 20
124.9361172125355
 30
0.0
 11
76.6920185285982
 21
121.8361172125355
 31
0.0
  0
LINE
  5
2745
330
2
100
AcDbEntity
  8
9
  6
CONTINUOUS
 62
     9
100
AcDbLine
 10
76.1920185285982
 20
121.3361172125356
 30
0.0
 11
75.3920185285982
 21
121.3361172125356
 31
0.0
  0
LINE
  5
2746
330
2
100
AcDbEntity
  8
9
  6
CONTINUOUS
 62
     9
100
AcDbLine
 10
74.8920185285982
 20
121.8361172125355
 30
0.0
 11
75.3920185285982
 21
121.3361172125356
 31
0.0
  0
LINE
  5
2747
330
2
100
AcDbEntity
  8
9
  6
CONTINUOUS
 62
     9
100
AcDbLine
 10
76.6920185285982
 20
121.8361172125355
 30
0.0
 11
76.1920185285982
 21
121.3361172125356
 31
0.0
  0
LINE
  5
2748
330
2
100
AcDbEntity
  8
9
  6
CONTINUOUS
 62
     9
100
AcDbLine
 10
71.29201852859819
 20
128.9861172125355
 30
0.0
 11
75.79201852859819
 21
129.9861172125355
 31
0.0
  0
LINE
  5
2749
330
2
100
AcDbEntity
  8
9
  6
CONTINUOUS
 62
     9
100
AcDbLine
 10
83.54201852859819
 20
134.6361172125355
 30
0.0
 11
83.54201852859819
 21
124.9361172125355
 31
0.0
  0
ARC
  5
274A
330
2
100
AcDbEntity
  8
9
  6
CONTINUOUS
 62
     9
100
AcDbCircle
 10
82.74201852859818
 20
134.6361172125355
 30
0.0
 40
0.8
100
AcDbArc
 50
0.0
 51
90.0
  0
LINE
  5
274B
330
2
100
AcDbEntity
  8
9
  6
CONTINUOUS
 62
     9
100
AcDbLine
 10
78.1420185285982
 20
162.489470805724
 30
0.0
 11
83.54201852859819
 21
162.489470805724
 31
0.0
  0
LINE
  5
274C
330
2
100
AcDbEntity
  8
9
  6
CONTINUOUS
 62
     9
100
AcDbLine
 10
73.74201852859818
 20
162.9894708057243
 30
0.0
 11
73.74201852859818
 21
157.4894708057243
 31
0.0
  0
LINE
  5
274D
330
2
100
AcDbEntity
  8
9
  6
CONTINUOUS
 62
     9
100
AcDbLine
 10
72.99201852859821
 20
162.489470805724
 30
0.0
 11
72.99201852859821
 21
157.4894708057243
 31
0.0
  0
LINE
  5
274E
330
2
100
AcDbEntity
  8
DRAW
  6
CONTINUOUS
100
AcDbLine
 10
71.32011452859818
 20
157.989470805724
 30
0.0
 11
71.32011452859818
 21
162.489470805724
 31
0.0
  0
LINE
  5
274F
330
2
100
AcDbEntity
  8
DRAW
  6
CONTINUOUS
100
AcDbLine
 10
73.74201852859818
 20
157.989470805724
 30
0.0
 11
73.74201852859818
 21
162.489470805724
 31
0.0
  0
LINE
  5
2750
330
2
100
AcDbEntity
  8
DRAW
  6
CONTINUOUS
100
AcDbLine
 10
75.74201852859818
 20
157.989470805724
 30
0.0
 11
75.74201852859818
 21
162.489470805724
 31
0.0
  0
LINE
  5
2751
330
2
100
AcDbEntity
  8
9
  6
CONTINUOUS
 62
     9
100
AcDbLine
 10
76.6420185285982
 20
162.489470805724
 30
0.0
 11
76.6420185285982
 21
158.9894708057243
 31
0.0
  0
LINE
  5
2752
330
2
100
AcDbEntity
  8
9
  6
CONTINUOUS
 62
     9
100
AcDbLine
 10
78.1420185285982
 20
162.489470805724
 30
0.0
 11
78.1420185285982
 21
158.9894708057243
 31
0.0
  0
LINE
  5
2753
330
2
100
AcDbEntity
  8
9
  6
CONTINUOUS
 62
     9
100
AcDbLine
 10
71.6420185285982
 20
162.489470805724
 30
0.0
 11
71.6420185285982
 21
157.989470805724
 31
0.0
  0
LINE
  5
2754
330
2
100
AcDbEntity
  8
DRAW
  6
CONTINUOUS
100
AcDbLine
 10
74.24201852859821
 20
156.989470805724
 30
0.0
 11
75.24201852859818
 21
156.989470805724
 31
0.0
  0
LINE
  5
2755
330
2
100
AcDbEntity
  8
0
  6
CONTINUOUS
100
AcDbLine
 10
72.1420185285982
 20
157.4894708057243
 30
0.0
 11
73.74201852859818
 21
157.4894708057243
 31
0.0
  0
LINE
  5
2756
330
2
100
AcDbEntity
  8
9
  6
CONTINUOUS
 62
     9
100
AcDbLine
 10
73.74201852859818
 20
157.989470805724
 30
0.0
 11
71.6420185285982
 21
157.989470805724
 31
0.0
  0
LINE
  5
2757
330
2
100
AcDbEntity
  8
DRAW
  6
CONTINUOUS
100
AcDbLine
 10
71.32011452859818
 20
157.989470805724
 30
0.0
 11
70.82011452859818
 21
156.989470805724
 31
0.0
  0
LINE
  5
2758
330
2
100
AcDbEntity
  8
9
  6
CONTINUOUS
 62
     9
100
AcDbLine
 10
71.6420185285982
 20
157.989470805724
 30
0.0
 11
72.1420185285982
 21
157.4894708057243
 31
0.0
  0
LINE
  5
2759
330
2
100
AcDbEntity
  8
DRAW
  6
CONTINUOUS
100
AcDbLine
 10
73.74201852859818
 20
157.989470805724
 30
0.0
 11
74.24201852859821
 21
156.989470805724
 31
0.0
  0
LINE
  5
275A
330
2
100
AcDbEntity
  8
9
  6
CONTINUOUS
 62
     9
100
AcDbLine
 10
78.1420185285982
 20
158.9894708057243
 30
0.0
 11
76.6420185285982
 21
158.9894708057243
 31
0.0
  0
LINE
  5
275B
330
2
100
AcDbEntity
  8
9
  6
CONTINUOUS
 62
     9
100
AcDbLine
 10
76.6420185285982
 20
158.9894708057243
 30
0.0
 11
77.1420185285982
 21
158.4894708057243
 31
0.0
  0
LINE
  5
275C
330
2
100
AcDbEntity
  8
DRAW
  6
CONTINUOUS
100
AcDbLine
 10
75.74201852859818
 20
157.989470805724
 30
0.0
 11
75.24201852859818
 21
156.989470805724
 31
0.0
  0
LINE
  5
275D
330
2
100
AcDbEntity
  8
9
  6
CONTINUOUS
 62
     9
100
AcDbLine
 10
77.6420185285982
 20
158.4894708057243
 30
0.0
 11
77.1420185285982
 21
158.4894708057243
 31
0.0
  0
LINE
  5
275E
330
2
100
AcDbEntity
  8
9
  6
CONTINUOUS
 62
     9
100
AcDbLine
 10
78.1420185285982
 20
158.9894708057243
 30
0.0
 11
77.6420185285982
 21
158.4894708057243
 31
0.0
  0
LINE
  5
275F
330
2
100
AcDbEntity
  8
9
  6
CONTINUOUS
 62
     9
100
AcDbLine
 10
71.04201852859819
 20
162.489470805724
 30
0.0
 11
71.04201852859819
 21
163.2894708057243
 31
0.0
  0
LINE
  5
2760
330
2
100
AcDbEntity
  8
9
  6
CONTINUOUS
 62
     9
100
AcDbLine
 10
73.74201852859818
 20
162.489470805724
 30
0.0
 11
73.74201852859818
 21
163.2894708057243
 31
0.0
  0
LINE
  5
2761
330
2
100
AcDbEntity
  8
9
  6
CONTINUOUS
 62
     9
100
AcDbLine
 10
75.74201852859818
 20
162.489470805724
 30
0.0
 11
75.74201852859818
 21
163.2894708057243
 31
0.0
  0
LINE
  5
2762
330
2
100
AcDbEntity
  8
DRAW
  6
CONTINUOUS
100
AcDbLine
 10
79.24293252859816
 20
157.989470805724
 30
0.0
 11
79.24293252859816
 21
162.489470805724
 31
0.0
  0
LINE
  5
2763
330
2
100
AcDbEntity
  8
DRAW
  6
CONTINUOUS
100
AcDbLine
 10
81.24293252859816
 20
157.989470805724
 30
0.0
 11
81.24293252859816
 21
162.489470805724
 31
0.0
  0
LINE
  5
2764
330
2
100
AcDbEntity
  8
DRAW
  6
CONTINUOUS
100
AcDbLine
 10
81.24293252859816
 20
157.989470805724
 30
0.0
 11
80.74293252859815
 21
156.989470805724
 31
0.0
  0
LINE
  5
2765
330
2
100
AcDbEntity
  8
DRAW
  6
CONTINUOUS
100
AcDbLine
 10
79.74293252859816
 20
156.989470805724
 30
0.0
 11
80.74293252859815
 21
156.989470805724
 31
0.0
  0
LINE
  5
2766
330
2
100
AcDbEntity
  8
DRAW
  6
CONTINUOUS
100
AcDbLine
 10
79.24293252859816
 20
157.989470805724
 30
0.0
 11
79.74293252859816
 21
156.989470805724
 31
0.0
  0
LINE
  5
2767
330
2
100
AcDbEntity
  8
9
  6
CONTINUOUS
 62
     9
100
AcDbLine
 10
83.54201852859819
 20
164.0894708057243
 30
0.0
 11
82.74201852859818
 21
164.0894708057243
 31
0.0
  0
LINE
  5
2768
330
2
100
AcDbEntity
  8
9
  6
CONTINUOUS
 62
     9
100
AcDbLine
 10
79.04201852859819
 20
162.489470805724
 30
0.0
 11
79.04201852859819
 21
163.2894708057243
 31
0.0
  0
LINE
  5
2769
330
2
100
AcDbEntity
  8
9
  6
CONTINUOUS
 62
     9
100
AcDbLine
 10
81.04201852859819
 20
162.489470805724
 30
0.0
 11
81.04201852859819
 21
163.2894708057243
 31
0.0
  0
LINE
  5
276B
330
2
100
AcDbEntity
  8
9
  6
CONTINUOUS
 62
     9
100
AcDbLine
 10
111.5774554221079
 20
167.7314708057243
 30
0.0
 11
107.9774554221079
 21
167.7314708057243
 31
0.0
  0
LINE
  5
276C
330
2
100
AcDbEntity
  8
9
  6
CONTINUOUS
 62
     9
100
AcDbLine
 10
115.1274554221077
 20
162.8314708057243
 30
0.0
 11
107.9774554221079
 21
162.8314708057243
 31
0.0
  0
LINE
  5
276D
330
2
100
AcDbEntity
  8
9
  6
CONTINUOUS
 62
     9
100
AcDbLine
 10
108.4774554221079
 20
167.7314708057243
 30
0.0
 11
108.4774554221079
 21
162.8314708057243
 31
0.0
  0
LINE
  5
276E
330
2
100
AcDbEntity
  8
9
  6
CONTINUOUS
 62
     9
100
AcDbLine
 10
107.9774554221079
 20
167.7314708057243
 30
0.0
 11
107.9774554221079
 21
162.8314708057243
 31
0.0
  0
POINT
  5
276F
330
2
100
AcDbEntity
  8
255
  6
CONTINUOUS
 62
     3
100
AcDbPoint
 10
107.9774554221079
 20
162.8314708057243
 30
0.0
  0
POINT
  5
2770
330
2
100
AcDbEntity
  8
255
  6
CONTINUOUS
 62
     3
100
AcDbPoint
 10
107.9774554221079
 20
162.8314708057243
 30
0.0
  0
LINE
  5
2771
330
2
100
AcDbEntity
  8
9
  6
CONTINUOUS
 62
     9
100
AcDbLine
 10
116.1274554221077
 20
162.8314708057243
 30
0.0
 11
116.1274554221077
 21
157.8314708057243
 31
0.0
  0
LINE
  5
2772
330
2
100
AcDbEntity
  8
9
  6
CONTINUOUS
 62
     9
100
AcDbLine
 10
115.7774554221079
 20
162.8314708057243
 30
0.0
 11
115.7774554221079
 21
158.3314708057243
 31
0.0
  0
LINE
  5
2773
330
2
100
AcDbEntity
  8
9
  6
CONTINUOUS
 62
     9
100
AcDbLine
 10
114.6274554221079
 20
162.8314708057243
 30
0.0
 11
114.6274554221079
 21
157.8314708057243
 31
0.0
  0
LINE
  5
2774
330
2
100
AcDbEntity
  8
9
  6
CONTINUOUS
 62
     9
100
AcDbLine
 10
112.8774554221077
 20
162.8314708057243
 30
0.0
 11
112.8774554221077
 21
159.3314708057243
 31
0.0
  0
LINE
  5
2775
330
2
100
AcDbEntity
  8
9
  6
CONTINUOUS
 62
     9
100
AcDbLine
 10
114.9774554221079
 20
162.8314708057243
 30
0.0
 11
114.9774554221079
 21
158.3314708057243
 31
0.0
  0
LINE
  5
2776
330
2
100
AcDbEntity
  8
9
  6
CONTINUOUS
 62
     9
100
AcDbLine
 10
112.8774554221077
 20
159.3314708057243
 30
0.0
 11
113.3774554221079
 21
158.8314708057243
 31
0.0
  0
LINE
  5
2777
330
2
100
AcDbEntity
  8
9
  6
CONTINUOUS
 62
     9
100
AcDbLine
 10
112.8774554221077
 20
159.3314708057243
 30
0.0
 11
114.6274554221079
 21
159.3314708057243
 31
0.0
  0
LINE
  5
2778
330
2
100
AcDbEntity
  8
9
  6
CONTINUOUS
 62
     9
100
AcDbLine
 10
114.9774554221079
 20
158.3314708057243
 30
0.0
 11
115.7774554221079
 21
158.3314708057243
 31
0.0
  0
LINE
  5
2779
330
2
100
AcDbEntity
  8
9
  6
CONTINUOUS
 62
     9
100
AcDbLine
 10
114.6274554221079
 20
157.8314708057243
 30
0.0
 11
116.1274554221077
 21
157.8314708057243
 31
0.0
  0
LINE
  5
277A
330
2
100
AcDbEntity
  8
9
  6
CONTINUOUS
 62
     9
100
AcDbLine
 10
114.9774554221079
 20
158.3314708057243
 30
0.0
 11
115.2274554221079
 21
157.8314708057243
 31
0.0
  0
POINT
  5
277B
330
2
100
AcDbEntity
  8
255
  6
CONTINUOUS
 62
     3
100
AcDbPoint
 10
114.6274554221079
 20
157.8314708057243
 30
0.0
  0
LINE
  5
277C
330
2
100
AcDbEntity
  8
9
  6
CONTINUOUS
 62
     9
100
AcDbLine
 10
113.3774554221079
 20
158.8314708057243
 30
0.0
 11
114.6274554221079
 21
158.8314708057243
 31
0.0
  0
LINE
  5
277D
330
2
100
AcDbEntity
  8
9
  6
CONTINUOUS
 62
     9
100
AcDbLine
 10
116.1274554221077
 20
158.8314708057243
 30
0.0
 11
117.3774554221079
 21
158.8314708057243
 31
0.0
  0
LINE
  5
277E
330
2
100
AcDbEntity
  8
9
  6
CONTINUOUS
 62
     9
100
AcDbLine
 10
115.5274554221079
 20
157.8314708057243
 30
0.0
 11
115.7774554221079
 21
158.3314708057243
 31
0.0
  0
LINE
  5
277F
330
2
100
AcDbEntity
  8
9
  6
CONTINUOUS
 62
     9
100
AcDbLine
 10
112.3774554221079
 20
164.4314708057243
 30
0.0
 11
112.3774554221079
 21
162.8314708057243
 31
0.0
  0
LINE
  5
2780
330
2
100
AcDbEntity
  8
9
  6
CONTINUOUS
 62
     9
100
AcDbLine
 10
112.3774554221079
 20
164.4314708057243
 30
0.0
 11
112.3774554221079
 21
162.8314708057243
 31
0.0
  0
LINE
  5
2781
330
2
100
AcDbEntity
  8
9
  6
CONTINUOUS
 62
     9
100
AcDbLine
 10
111.5774554221079
 20
164.4314708057243
 30
0.0
 11
112.3774554221079
 21
164.4314708057243
 31
0.0
  0
LINE
  5
2782
330
2
100
AcDbEntity
  8
9
  6
CONTINUOUS
 62
     9
100
AcDbLine
 10
111.5774554221079
 20
164.4314708057243
 30
0.0
 11
112.3774554221079
 21
164.4314708057243
 31
0.0
  0
LINE
  5
2783
330
2
100
AcDbEntity
  8
DRAW
  6
CONTINUOUS
100
AcDbLine
 10
69.51920052859822
 20
214.5288568489791
 30
0.0
 11
71.51920052859821
 21
214.5288568489791
 31
0.0
  0
LINE
  5
2784
330
2
100
AcDbEntity
  8
DRAW
  6
CONTINUOUS
100
AcDbLine
 10
69.51920052859822
 20
214.0288568489791
 30
0.0
 11
71.51920052859821
 21
214.0288568489791
 31
0.0
  0
LINE
  5
2785
330
2
100
AcDbEntity
  8
DRAW
  6
CONTINUOUS
100
AcDbLine
 10
68.04201852859819
 20
211.278856848979
 30
0.0
 11
83.84201852859821
 21
211.278856848979
 31
0.0
  0
LINE
  5
2787
330
2
100
AcDbEntity
  8
DRAW
  6
CONTINUOUS
100
AcDbLine
 10
68.84201852859821
 20
193.489470805724
 30
0.0
 11
82.74201852859818
 21
193.489470805724
 31
0.0
  0
LINE
  5
2788
330
2
100
AcDbEntity
  8
9
  6
CONTINUOUS
 62
     9
100
AcDbLine
 10
83.54201852859819
 20
211.278856848979
 30
0.0
 11
68.04201852859819
 21
211.278856848979
 31
0.0
  0
LINE
  5
2789
330
2
100
AcDbEntity
  8
9
  6
CONTINUOUS
 62
     9
100
AcDbLine
 10
82.74201852859818
 20
207.578856848979
 30
0.0
 11
68.84201852859821
 21
207.578856848979
 31
0.0
  0
LINE
  5
278A
330
2
100
AcDbEntity
  8
9
  6
CONTINUOUS
 62
     9
100
AcDbLine
 10
68.84201852859821
 20
217.278856848979
 30
0.0
 11
74.8920185285982
 21
217.278856848979
 31
0.0
  0
LINE
  5
278B
330
2
100
AcDbEntity
  8
9
  6
CONTINUOUS
 62
     9
100
AcDbLine
 10
68.04201852859819
 20
218.0788568489791
 30
0.0
 11
74.8920185285982
 21
218.0788568489791
 31
0.0
  0
ARC
  5
278C
330
2
100
AcDbEntity
  8
DRAW
  6
CONTINUOUS
100
AcDbCircle
 10
68.84201852859821
 20
192.6894708057241
 30
0.0
 40
0.8
100
AcDbArc
 50
90.0
 51
180.0
  0
LINE
  5
278E
330
2
100
AcDbEntity
  8
9
  6
CONTINUOUS
 62
     9
100
AcDbLine
 10
68.04201852859819
 20
208.3788568489789
 30
0.0
 11
68.04201852859819
 21
218.0788568489791
 31
0.0
  0
ARC
  5
278F
330
2
100
AcDbEntity
  8
9
  6
CONTINUOUS
 62
     9
100
AcDbCircle
 10
68.84201852859821
 20
208.3788568489789
 30
0.0
 40
0.8
100
AcDbArc
 50
180.0
 51
270.0
  0
LINE
  5
2790
330
2
100
AcDbEntity
  8
9
  6
CONTINUOUS
 62
     9
100
AcDbLine
 10
68.04201852859819
 20
217.278856848979
 30
0.0
 11
69.6420185285982
 21
217.278856848979
 31
0.0
  0
LINE
  5
2791
330
2
100
AcDbEntity
  8
DRAW
  6
CONTINUOUS
100
AcDbLine
 10
69.51920052859822
 20
214.0288568489791
 30
0.0
 11
69.51920052859822
 21
214.5288568489791
 31
0.0
  0
ARC
  5
2795
330
2
100
AcDbEntity
  8
DRAW
  6
CONTINUOUS
100
AcDbCircle
 10
82.74201852859818
 20
192.6894708057241
 30
0.0
 40
0.8
100
AcDbArc
 50
0.0
 51
90.0
  0
LINE
  5
2797
330
2
100
AcDbEntity
  8
9
  6
CONTINUOUS
 62
     9
100
AcDbLine
 10
82.74201852859818
 20
217.278856848979
 30
0.0
 11
76.6920185285982
 21
217.278856848979
 31
0.0
  0
LINE
  5
2798
330
2
100
AcDbEntity
  8
9
  6
CONTINUOUS
 62
     9
100
AcDbLine
 10
76.6920185285982
 20
218.0788568489791
 30
0.0
 11
83.54201852859819
 21
218.0788568489791
 31
0.0
  0
LINE
  5
2799
330
2
100
AcDbEntity
  8
DRAW
  6
CONTINUOUS
100
AcDbLine
 10
78.28892252859815
 20
211.7788568489791
 30
0.0
 11
78.28892252859815
 21
216.7788568489791
 31
0.0
  0
LINE
  5
279A
330
2
100
AcDbEntity
  8
DRAW
  6
CONTINUOUS
100
AcDbLine
 10
76.78892252859815
 20
211.7788568489791
 30
0.0
 11
76.78892252859815
 21
216.7788568489791
 31
0.0
  0
LINE
  5
279B
330
2
100
AcDbEntity
  8
DRAW
  6
CONTINUOUS
100
AcDbLine
 10
76.78892252859815
 20
211.7788568489791
 30
0.0
 11
78.28892252859815
 21
211.7788568489791
 31
0.0
  0
LINE
  5
279C
330
2
100
AcDbEntity
  8
DRAW
  6
CONTINUOUS
100
AcDbLine
 10
73.94110452859813
 20
214.0288568489791
 30
0.0
 11
75.94110452859816
 21
214.0288568489791
 31
0.0
  0
LINE
  5
279D
330
2
100
AcDbEntity
  8
DRAW
  6
CONTINUOUS
100
AcDbLine
 10
73.94110452859813
 20
214.5288568489791
 30
0.0
 11
75.94110452859816
 21
214.5288568489791
 31
0.0
  0
LINE
  5
279E
330
2
100
AcDbEntity
  8
DRAW
  6
CONTINUOUS
100
AcDbLine
 10
72.01920052859822
 20
213.9038568489791
 30
0.0
 11
73.04110452859815
 21
213.9038568489791
 31
0.0
  0
LINE
  5
279F
330
2
100
AcDbEntity
  8
DRAW
  6
CONTINUOUS
100
AcDbLine
 10
72.01920052859822
 20
214.6538568489791
 30
0.0
 11
73.04110452859815
 21
214.6538568489791
 31
0.0
  0
LINE
  5
27A0
330
2
100
AcDbEntity
  8
DRAW
  6
CONTINUOUS
100
AcDbLine
 10
71.51920052859821
 20
214.0288568489791
 30
0.0
 11
71.51920052859821
 21
214.5288568489791
 31
0.0
  0
LINE
  5
27A1
330
2
100
AcDbEntity
  8
DRAW
  6
CONTINUOUS
100
AcDbLine
 10
72.01920052859822
 20
213.9038568489791
 30
0.0
 11
72.01920052859822
 21
214.6538568489791
 31
0.0
  0
LINE
  5
27A2
330
2
100
AcDbEntity
  8
DRAW
  6
CONTINUOUS
100
AcDbLine
 10
73.94110452859813
 20
214.0288568489791
 30
0.0
 11
73.94110452859813
 21
214.5288568489791
 31
0.0
  0
LINE
  5
27A3
330
2
100
AcDbEntity
  8
DRAW
  6
CONTINUOUS
100
AcDbLine
 10
73.94110452859813
 20
213.5288568489789
 30
0.0
 11
73.94110452859813
 21
215.028856848979
 31
0.0
  0
LINE
  5
27A4
330
2
100
AcDbEntity
  8
DRAW
  6
CONTINUOUS
100
AcDbLine
 10
73.04110452859815
 20
213.5288568489789
 30
0.0
 11
73.04110452859815
 21
213.9038568489791
 31
0.0
  0
LINE
  5
27A5
330
2
100
AcDbEntity
  8
DRAW
  6
CONTINUOUS
100
AcDbLine
 10
73.04110452859815
 20
214.6538568489791
 30
0.0
 11
73.04110452859815
 21
215.028856848979
 31
0.0
  0
LINE
  5
27A6
330
2
100
AcDbEntity
  8
DRAW
  6
CONTINUOUS
100
AcDbLine
 10
73.04110452859815
 20
215.028856848979
 30
0.0
 11
73.94110452859813
 21
215.028856848979
 31
0.0
  0
LINE
  5
27A7
330
2
100
AcDbEntity
  8
DRAW
  6
CONTINUOUS
100
AcDbLine
 10
73.04110452859815
 20
213.5288568489789
 30
0.0
 11
73.94110452859813
 21
213.5288568489789
 31
0.0
  0
LINE
  5
27A8
330
2
100
AcDbEntity
  8
9
  6
CONTINUOUS
 62
     9
100
AcDbLine
 10
74.8920185285982
 20
217.278856848979
 30
0.0
 11
74.8920185285982
 21
221.178856848979
 31
0.0
  0
LINE
  5
27A9
330
2
100
AcDbEntity
  8
9
  6
CONTINUOUS
 62
     9
100
AcDbLine
 10
76.6920185285982
 20
217.278856848979
 30
0.0
 11
76.6920185285982
 21
221.178856848979
 31
0.0
  0
LINE
  5
27AA
330
2
100
AcDbEntity
  8
DRAW
  6
CONTINUOUS
100
AcDbLine
 10
76.78892252859815
 20
216.7788568489791
 30
0.0
 11
78.28892252859815
 21
216.7788568489791
 31
0.0
  0
LINE
  5
27AB
330
2
100
AcDbEntity
  8
DRAW
  6
CONTINUOUS
100
AcDbLine
 10
75.94110452859816
 20
214.0288568489791
 30
0.0
 11
75.94110452859816
 21
214.5288568489791
 31
0.0
  0
LINE
  5
27AC
330
2
100
AcDbEntity
  8
9
  6
CONTINUOUS
 62
     9
100
AcDbLine
 10
75.3920185285982
 20
221.6788568489791
 30
0.0
 11
76.1920185285982
 21
221.6788568489791
 31
0.0
  0
LINE
  5
27AD
330
2
100
AcDbEntity
  8
9
  6
CONTINUOUS
 62
     9
100
AcDbLine
 10
74.8920185285982
 20
221.178856848979
 30
0.0
 11
75.3920185285982
 21
221.6788568489791
 31
0.0
  0
LINE
  5
27AE
330
2
100
AcDbEntity
  8
9
  6
CONTINUOUS
 62
     9
100
AcDbLine
 10
76.6920185285982
 20
221.178856848979
 30
0.0
 11
76.1920185285982
 21
221.6788568489791
 31
0.0
  0
LINE
  5
27AF
330
2
100
AcDbEntity
  8
9
  6
CONTINUOUS
 62
     9
100
AcDbLine
 10
83.54201852859819
 20
218.0788568489791
 30
0.0
 11
83.54201852859819
 21
208.3788568489789
 31
0.0
  0
ARC
  5
27B0
330
2
100
AcDbEntity
  8
9
  6
CONTINUOUS
 62
     9
100
AcDbCircle
 10
82.74201852859818
 20
208.3788568489789
 30
0.0
 40
0.8
100
AcDbArc
 50
270.0
 51
0.0
  0
LINE
  5
27B1
330
2
100
AcDbEntity
  8
9
  6
CONTINUOUS
 62
     9
100
AcDbLine
 10
81.04201852859819
 20
217.278856848979
 30
0.0
 11
83.54201852859819
 21
217.278856848979
 31
0.0
  0
LINE
  5
27B2
330
2
100
AcDbEntity
  8
DRAW
  6
CONTINUOUS
100
AcDbLine
 10
79.44201852859823
 20
214.5288568489791
 30
0.0
 11
81.44201852859822
 21
214.5288568489791
 31
0.0
  0
LINE
  5
27B3
330
2
100
AcDbEntity
  8
DRAW
  6
CONTINUOUS
100
AcDbLine
 10
79.44201852859823
 20
214.0288568489791
 30
0.0
 11
81.44201852859822
 21
214.0288568489791
 31
0.0
  0
LINE
  5
27B4
330
2
100
AcDbEntity
  8
DRAW
  6
CONTINUOUS
100
AcDbLine
 10
79.44201852859823
 20
214.0288568489791
 30
0.0
 11
79.44201852859823
 21
214.5288568489791
 31
0.0
  0
LINE
  5
27B5
330
2
100
AcDbEntity
  8
DRAW
  6
CONTINUOUS
100
AcDbLine
 10
81.44201852859822
 20
214.0288568489791
 30
0.0
 11
81.44201852859822
 21
214.5288568489791
 31
0.0
  0
LINE
  5
27B8
330
2
100
AcDbEntity
  8
DRAW
  6
CONTINUOUS
100
AcDbLine
 10
115.5774554221079
 20
193.8314708057242
 30
0.0
 11
111.5774554221079
 21
193.8314708057242
 31
0.0
  0
LINE
  5
27B9
330
2
100
AcDbEntity
  8
DRAW
  6
CONTINUOUS
100
AcDbLine
 10
111.5774554221079
 20
193.8314708057242
 30
0.0
 11
114.7774554221079
 21
193.8314708057242
 31
0.0
  0
LINE
  5
27BA
330
2
100
AcDbEntity
  8
DRAW
  6
CONTINUOUS
100
AcDbLine
 10
111.5774554221079
 20
193.0314708057241
 30
0.0
 11
111.5774554221079
 21
193.8314708057242
 31
0.0
  0
LINE
  5
27BC
330
2
100
AcDbEntity
  8
DRAW
  6
CONTINUOUS
100
AcDbLine
 10
154.4626046081493
 20
193.8314708057242
 30
0.0
 11
154.4626046081493
 21
165.2314708057243
 31
0.0
  0
LINE
  5
27BD
330
2
100
AcDbEntity
  8
DRAW
  6
CONTINUOUS
100
AcDbLine
 10
153.6626046081493
 20
193.8314708057242
 30
0.0
 11
153.6626046081493
 21
165.2314708057243
 31
0.0
  0
LINE
  5
27BE
330
2
100
AcDbEntity
  8
DRAW
  6
CONTINUOUS
100
AcDbLine
 10
138.9626046081491
 20
193.8314708057242
 30
0.0
 11
138.9626046081491
 21
165.2314708057243
 31
0.0
  0
LINE
  5
27BF
330
2
100
AcDbEntity
  8
DRAW
  6
CONTINUOUS
100
AcDbLine
 10
139.7626046081493
 20
193.8314708057242
 30
0.0
 11
139.7626046081493
 21
165.2314708057243
 31
0.0
  0
LINE
  5
27C0
330
2
100
AcDbEntity
  8
DRAW
  6
CONTINUOUS
100
AcDbLine
 10
122.0774554221079
 20
187.3314708057241
 30
0.0
 11
122.0774554221079
 21
164.4314708057243
 31
0.0
  0
LINE
  5
27C1
330
2
100
AcDbEntity
  8
DRAW
  6
CONTINUOUS
100
AcDbLine
 10
138.9626046081491
 20
163.631470805724
 30
0.0
 11
154.4626046081493
 21
163.631470805724
 31
0.0
  0
LINE
  5
27C2
330
2
100
AcDbEntity
  8
DRAW
  6
CONTINUOUS
100
AcDbLine
 10
147.6126046081493
 20
165.2314708057243
 30
0.0
 11
154.4626046081493
 21
165.2314708057243
 31
0.0
  0
LINE
  5
27C3
330
2
100
AcDbEntity
  8
9
  6
CONTINUOUS
 62
     9
100
AcDbLine
 10
117.8774554221079
 20
162.8314708057243
 30
0.0
 11
117.8774554221079
 21
159.3314708057243
 31
0.0
  0
LINE
  5
27C4
330
2
100
AcDbEntity
  8
9
  6
CONTINUOUS
 62
     9
100
AcDbLine
 10
118.3774554221079
 20
164.4314708057243
 30
0.0
 11
122.0774554221079
 21
164.4314708057243
 31
0.0
  0
LINE
  5
27C5
330
2
100
AcDbEntity
  8
9
  6
CONTINUOUS
 62
     9
100
AcDbLine
 10
118.3774554221079
 20
162.8314708057243
 30
0.0
 11
118.3774554221079
 21
164.4314708057243
 31
0.0
  0
LINE
  5
27C6
330
2
100
AcDbEntity
  8
DRAW
  6
CONTINUOUS
100
AcDbLine
 10
147.6126046081493
 20
168.5314708057243
 30
0.0
 11
145.8126046081493
 21
168.5314708057243
 31
0.0
  0
LINE
  5
27C7
330
2
100
AcDbEntity
  8
DRAW
  6
CONTINUOUS
100
AcDbLine
 10
151.9626046081493
 20
163.631470805724
 30
0.0
 11
139.9626046081491
 21
163.631470805724
 31
0.0
  0
LINE
  5
27C8
330
2
100
AcDbEntity
  8
DRAW
  6
CONTINUOUS
100
AcDbLine
 10
139.7626046081493
 20
163.631470805724
 30
0.0
 11
153.6626046081493
 21
163.631470805724
 31
0.0
  0
LINE
  5
27C9
330
2
100
AcDbEntity
  8
DRAW
  6
CONTINUOUS
100
AcDbLine
 10
144.3626046081493
 20
163.631470805724
 30
0.0
 11
144.3626046081493
 21
160.131470805724
 31
0.0
  0
LINE
  5
27CA
330
2
100
AcDbEntity
  8
DRAW
  6
CONTINUOUS
100
AcDbLine
 10
145.8626046081493
 20
163.631470805724
 30
0.0
 11
145.8626046081493
 21
160.131470805724
 31
0.0
  0
LINE
  5
27CB
330
2
100
AcDbEntity
  8
DRAW
  6
CONTINUOUS
100
AcDbLine
 10
145.3626046081493
 20
159.631470805724
 30
0.0
 11
145.8626046081493
 21
160.131470805724
 31
0.0
  0
LINE
  5
27CC
330
2
100
AcDbEntity
  8
DRAW
  6
CONTINUOUS
100
AcDbLine
 10
144.3626046081493
 20
160.131470805724
 30
0.0
 11
144.8626046081493
 21
159.631470805724
 31
0.0
  0
LINE
  5
27CD
330
2
100
AcDbEntity
  8
DRAW
  6
CONTINUOUS
100
AcDbLine
 10
145.8626046081493
 20
160.131470805724
 30
0.0
 11
144.3626046081493
 21
160.131470805724
 31
0.0
  0
LINE
  5
27CE
330
2
100
AcDbEntity
  8
DRAW
  6
CONTINUOUS
100
AcDbLine
 10
145.3626046081493
 20
159.631470805724
 30
0.0
 11
144.8626046081493
 21
159.631470805724
 31
0.0
  0
LINE
  5
27CF
330
2
100
AcDbEntity
  8
DRAW
  6
CONTINUOUS
100
AcDbLine
 10
138.9626046081491
 20
165.2314708057243
 30
0.0
 11
145.8126046081493
 21
165.2314708057243
 31
0.0
  0
LINE
  5
27D0
330
2
100
AcDbEntity
  8
DRAW
  6
CONTINUOUS
100
AcDbLine
 10
139.7626046081493
 20
166.7694708057243
 30
0.0
 11
139.7626046081493
 21
165.2314708057243
 31
0.0
  0
LINE
  5
27D1
330
2
100
AcDbEntity
  8
DRAW
  6
CONTINUOUS
100
AcDbLine
 10
138.9626046081491
 20
166.7694708057243
 30
0.0
 11
138.9626046081491
 21
163.631470805724
 31
0.0
  0
LINE
  5
27D2
330
2
100
AcDbEntity
  8
DRAW
  6
CONTINUOUS
100
AcDbLine
 10
145.8126046081493
 20
168.5314708057243
 30
0.0
 11
145.8126046081493
 21
163.631470805724
 31
0.0
  0
LINE
  5
27D3
330
2
100
AcDbEntity
  8
DRAW
  6
CONTINUOUS
100
AcDbLine
 10
150.8626046081493
 20
163.631470805724
 30
0.0
 11
150.8626046081493
 21
159.131470805724
 31
0.0
  0
LINE
  5
27D4
330
2
100
AcDbEntity
  8
DRAW
  6
CONTINUOUS
100
AcDbLine
 10
148.8126046081493
 20
163.631470805724
 30
0.0
 11
148.8126046081493
 21
158.6314708057241
 31
0.0
  0
LINE
  5
27D5
330
2
100
AcDbEntity
  8
DRAW
  6
CONTINUOUS
100
AcDbLine
 10
149.5126046081493
 20
163.631470805724
 30
0.0
 11
149.5126046081493
 21
158.6314708057241
 31
0.0
  0
LINE
  5
27D6
330
2
100
AcDbEntity
  8
DRAW
  6
CONTINUOUS
100
AcDbLine
 10
150.3626046081493
 20
158.6314708057241
 30
0.0
 11
148.8126046081493
 21
158.6314708057241
 31
0.0
  0
LINE
  5
27D7
330
2
100
AcDbEntity
  8
DRAW
  6
CONTINUOUS
100
AcDbLine
 10
150.8626046081493
 20
159.131470805724
 30
0.0
 11
149.5126046081493
 21
159.131470805724
 31
0.0
  0
LINE
  5
27D8
330
2
100
AcDbEntity
  8
DRAW
  6
CONTINUOUS
100
AcDbLine
 10
150.3626046081493
 20
158.6314708057241
 30
0.0
 11
150.8626046081493
 21
159.131470805724
 31
0.0
  0
LINE
  5
27D9
330
2
100
AcDbEntity
  8
DRAW
  6
CONTINUOUS
100
AcDbLine
 10
146.3126046081493
 20
168.5314708057243
 30
0.0
 11
146.3126046081493
 21
163.631470805724
 31
0.0
  0
LINE
  5
27DA
330
2
100
AcDbEntity
  8
DRAW
  6
CONTINUOUS
100
AcDbLine
 10
147.6126046081493
 20
163.631470805724
 30
0.0
 11
147.6126046081493
 21
168.5314708057243
 31
0.0
  0
LINE
  5
27DB
330
2
100
AcDbEntity
  8
DRAW
  6
CONTINUOUS
100
AcDbLine
 10
147.1126046081493
 20
163.631470805724
 30
0.0
 11
147.1126046081493
 21
168.5314708057243
 31
0.0
  0
LINE
  5
27DC
330
2
100
AcDbEntity
  8
DRAW
  6
CONTINUOUS
100
AcDbLine
 10
153.6626046081493
 20
166.7694708057243
 30
0.0
 11
153.6626046081493
 21
165.2314708057243
 31
0.0
  0
LINE
  5
27DD
330
2
100
AcDbEntity
  8
DRAW
  6
CONTINUOUS
100
AcDbLine
 10
154.4626046081493
 20
166.7694708057243
 30
0.0
 11
154.4626046081493
 21
163.631470805724
 31
0.0
  0
ARC
  5
27DE
330
2
100
AcDbEntity
  8
DRAW
  6
CONTINUOUS
100
AcDbCircle
 10
153.6626046081493
 20
193.8314708057242
 30
0.0
 40
0.8
100
AcDbArc
 50
0.0
 51
90.0
  0
LINE
  5
27DF
330
2
100
AcDbEntity
  8
DRAW
  6
CONTINUOUS
100
AcDbLine
 10
139.7626046081493
 20
193.8314708057242
 30
0.0
 11
153.6626046081493
 21
193.8314708057242
 31
0.0
  0
ARC
  5
27E0
330
2
100
AcDbEntity
  8
DRAW
  6
CONTINUOUS
100
AcDbCircle
 10
142.0006046081493
 20
64.54247080572429
 30
0.0
 40
130.09
100
AcDbArc
 50
87.92399999999959
 51
89.90700000000016
  0
LINE
  5
27E1
330
2
100
AcDbEntity
  8
DRAW
  6
CONTINUOUS
100
AcDbLine
 10
153.6626046081493
 20
194.631470805724
 30
0.0
 11
139.7626046081493
 21
194.631470805724
 31
0.0
  0
ARC
  5
27E2
330
2
100
AcDbEntity
  8
DRAW
  6
CONTINUOUS
100
AcDbCircle
 10
139.7626046081493
 20
193.8314708057242
 30
0.0
 40
0.8
100
AcDbArc
 50
90.0
 51
180.0
  0
ARC
  5
27E3
330
2
100
AcDbEntity
  8
DRAW
  6
CONTINUOUS
100
AcDbCircle
 10
151.4246046081493
 20
64.54247080572429
 30
0.0
 40
130.09
100
AcDbArc
 50
90.09299999999985
 51
92.0760000000004
  0
LINE
  5
27E4
330
2
100
AcDbEntity
  8
DRAW
  6
CONTINUOUS
100
AcDbLine
 10
146.7126046081493
 20
194.631470805724
 30
0.0
 11
146.7126046081493
 21
194.5464708057241
 31
0.0
  0
ARC
  5
298C
330
2
100
AcDbEntity
  8
DRAW
  6
CONTINUOUS
100
AcDbCircle
 10
115.5774554221079
 20
187.3314708057241
 30
0.0
 40
5.7
100
AcDbArc
 50
0.0
 51
90.0
  0
ARC
  5
298E
330
2
100
AcDbEntity
  8
DRAW
  6
CONTINUOUS
100
AcDbCircle
 10
115.5774554221079
 20
187.3314708057241
 30
0.0
 40
6.5
100
AcDbArc
 50
0.0
 51
90.0
  0
LINE
  5
298F
330
2
100
AcDbEntity
  8
DRAW
  6
CONTINUOUS
100
AcDbLine
 10
122.077455422108
 20
187.3314708057241
 30
0.0
 11
122.077455422108
 21
164.4314708057241
 31
0.0
  0
LINE
  5
2990
330
2
100
AcDbEntity
  8
DRAW
  6
CONTINUOUS
100
AcDbLine
 10
121.277455422108
 20
187.3314708057241
 30
0.0
 11
121.277455422108
 21
164.4314708057241
 31
0.0
  0
LINE
  5
2991
330
2
100
AcDbEntity
  8
DRAW
  6
CONTINUOUS
100
AcDbLine
 10
121.277455422108
 20
187.3314708057241
 30
0.0
 11
122.077455422108
 21
187.3314708057241
 31
0.0
  0
LINE
  5
2992
330
2
100
AcDbEntity
  8
DRAW
  6
CONTINUOUS
100
AcDbLine
 10
111.5774554221079
 20
193.8314708057242
 30
0.0
 11
115.5774554221079
 21
193.8314708057242
 31
0.0
  0
LINE
  5
2993
330
2
100
AcDbEntity
  8
DRAW
  6
CONTINUOUS
100
AcDbLine
 10
115.5774554221079
 20
193.0314708057241
 30
0.0
 11
111.5774554221079
 21
193.0314708057241
 31
0.0
  0
LINE
  5
2994
330
2
100
AcDbEntity
  8
DRAW
  6
CONTINUOUS
100
AcDbLine
 10
111.5774554221079
 20
193.0314708057241
 30
0.0
 11
111.5774554221079
 21
193.8314708057242
 31
0.0
  0
LINE
  5
2995
330
2
100
AcDbEntity
  8
DRAW
  6
CONTINUOUS
100
AcDbLine
 10
116.627455422108
 20
193.8314708057242
 30
0.0
 11
116.627455422108
 21
193.7454708057241
 31
0.0
  0
LINE
  5
2996
330
2
100
AcDbEntity
  8
DRAW
  6
CONTINUOUS
100
AcDbLine
 10
116.627455422108
 20
193.8314708057242
 30
0.0
 11
116.042455422108
 21
194.2314708057243
 31
0.0
  0
LINE
  5
2997
330
2
100
AcDbEntity
  8
DRAW
  6
CONTINUOUS
100
AcDbLine
 10
115.5774554221079
 20
193.0314708057241
 30
0.0
 11
115.5774554221079
 21
193.8314708057242
 31
0.0
  0
LINE
  5
2998
330
2
100
AcDbEntity
  8
DRAW
  6
CONTINUOUS
100
AcDbLine
 10
115.627455422108
 20
194.2314708057243
 30
0.0
 11
115.2124554221081
 21
194.2314708057243
 31
0.0
  0
LINE
  5
2999
330
2
100
AcDbEntity
  8
DRAW
  6
CONTINUOUS
100
AcDbLine
 10
115.627455422108
 20
193.8314708057242
 30
0.0
 11
115.627455422108
 21
194.2314708057243
 31
0.0
  0
LINE
  5
299A
330
2
100
AcDbEntity
  8
DRAW
  6
CONTINUOUS
100
AcDbLine
 10
115.627455422108
 20
193.8314708057242
 30
0.0
 11
116.627455422108
 21
193.8314708057242
 31
0.0
  0
LINE
  5
299B
330
2
100
AcDbEntity
  8
DRAW
  6
CONTINUOUS
100
AcDbLine
 10
116.042455422108
 20
194.2314708057243
 30
0.0
 11
115.627455422108
 21
194.2314708057243
 31
0.0
  0
LINE
  5
299C
330
2
100
AcDbEntity
  8
DRAW
  6
CONTINUOUS
100
AcDbLine
 10
114.627455422108
 20
193.8314708057242
 30
0.0
 11
115.2124554221081
 21
194.2314708057243
 31
0.0
  0
LINE
  5
29D0
330
2
100
AcDbEntity
  8
DRAW
  6
CONTINUOUS
100
AcDbLine
 10
75.79201852859821
 20
193.8894708057242
 30
0.0
 11
77.65901852859816
 21
193.8894708057242
 31
0.0
  0
ARC
  5
29D1
330
2
100
AcDbEntity
  8
DRAW
  6
CONTINUOUS
100
AcDbCircle
 10
80.50401852859819
 20
63.39947080572409
 30
0.0
 40
130.09
100
AcDbArc
 50
90.09300000000147
 51
92.07599999999878
  0
LINE
  5
29D2
330
2
100
AcDbEntity
  8
DRAW
  6
CONTINUOUS
100
AcDbLine
 10
80.2920185285982
 20
193.4894708057241
 30
0.0
 11
75.79201852859821
 21
193.4894708057241
 31
0.0
  0
LINE
  5
29D3
330
2
100
AcDbEntity
  8
DRAW
  6
CONTINUOUS
100
AcDbLine
 10
71.29201852859821
 20
193.4894708057241
 30
0.0
 11
73.92601852859822
 21
193.8894708057242
 31
0.0
  0
ARC
  5
29D4
330
2
100
AcDbEntity
  8
DRAW
  6
CONTINUOUS
100
AcDbCircle
 10
71.08101852859819
 20
63.39947080572409
 30
0.0
 40
130.09
100
AcDbArc
 50
87.92400000000121
 51
89.90699999999852
  0
LINE
  5
29D5
330
2
100
AcDbEntity
  8
DRAW
  6
CONTINUOUS
100
AcDbLine
 10
75.79201852859821
 20
193.4894708057241
 30
0.0
 11
71.29201852859821
 21
193.4894708057241
 31
0.0
  0
LINE
  5
29D6
330
2
100
AcDbEntity
  8
DRAW
  6
CONTINUOUS
100
AcDbLine
 10
75.79201852859821
 20
193.4894708057241
 30
0.0
 11
75.79201852859821
 21
193.4034708057241
 31
0.0
  0
LINE
  5
29D7
330
2
100
AcDbEntity
  8
DRAW
  6
CONTINUOUS
100
AcDbLine
 10
75.79201852859821
 20
193.4894708057241
 30
0.0
 11
75.79201852859821
 21
193.8894708057242
 31
0.0
  0
POINT
  5
29D8
330
2
100
AcDbEntity
  8
DRAW
  6
CONTINUOUS
100
AcDbPoint
 10
75.79201852859821
 20
193.8894708057242
 30
0.0
  0
LINE
  5
29D9
330
2
100
AcDbEntity
  8
DRAW
  6
CONTINUOUS
100
AcDbLine
 10
73.92601852859822
 20
193.8894708057242
 30
0.0
 11
75.79201852859821
 21
193.8894708057242
 31
0.0
  0
LINE
  5
29DA
330
2
100
AcDbEntity
  8
DRAW
  6
CONTINUOUS
100
AcDbLine
 10
80.2920185285982
 20
193.4894708057241
 30
0.0
 11
77.65901852859816
 21
193.8894708057242
 31
0.0
  0
LINE
  5
29DB
330
2
100
AcDbEntity
  8
DRAW
  6
CONTINUOUS
100
AcDbLine
 10
68.84201852859821
 20
193.4894708057241
 30
0.0
 11
71.29201852859821
 21
193.4894708057241
 31
0.0
  0
LINE
  5
29DC
330
2
100
AcDbEntity
  8
DRAW
  6
CONTINUOUS
100
AcDbLine
 10
68.84201852859821
 20
186.9894708057241
 30
0.0
 11
82.74301852859817
 21
186.9894708057241
 31
0.0
  0
DIMENSION
  5
29DD
330
2
100
AcDbEntity
  8
DIM
  6
CONTINUOUS
100
AcDbDimension
  2
*D36
 10
60.45952490597278
 20
162.4894708057241
 30
0.0
 11
58.91487961265761
 21
178.1894708057242
 31
0.0
 70
    32
  3
FINDER
100
AcDbAlignedDimension
 13
75.79201852859821
 23
193.8894708057242
 33
0.0
 14
68.04201852859819
 24
162.489470805724
 34
0.0
 50
90.0
100
AcDbRotatedDimension
  0
DIMENSION
  5
29EA
330
2
100
AcDbEntity
  8
DIM
  6
CONTINUOUS
100
AcDbDimension
  2
*D37
 10
64.9350349690951
 20
156.989470805724
 30
0.0
 11
63.39468708369262
 21
159.7394708057241
 31
0.0
 70
    32
  1
5.4
  3
FINDER
100
AcDbAlignedDimension
 13
68.04201852859819
 23
162.489470805724
 33
0.0
 14
70.32011452859816
 24
156.989470805724
 34
0.0
 50
90.0
100
AcDbRotatedDimension
  0
ENDSEC
  0
SECTION
  2
OBJECTS
  0
DICTIONARY
  5
1A
330
0
100
AcDbDictionary
  3
ACAD_GROUP
350
18
  3
ACAD_LAYOUT
350
2300
  3
ACAD_MLINESTYLE
350
19
  3
ACAD_PLOTSETTINGS
350
2301
  3
ACAD_PLOTSTYLENAME
350
22FE
  3
ACDBHEADERROUNDTRIPXREC
350
2B19
  3
ACDBVARIABLEDICTIONARY
350
2307
  0
DICTIONARY
  5
293F
330
2
100
AcDbDictionary
280
     1
  3
ACAD_LAYOUTSELFREF
360
2B39
  0
DICTIONARY
  5
2941
330
7
100
AcDbDictionary
280
     1
  3
ACAD_LAYOUTSELFREF
360
2B3A
  0
DICTIONARY
  5
18
102
{ACAD_REACTORS
330
1A
102
}
330
1A
100
AcDbDictionary
  0
DICTIONARY
  5
2300
102
{ACAD_REACTORS
330
1A
102
}
330
1A
100
AcDbDictionary
  0
DICTIONARY
  5
19
102
{ACAD_REACTORS
330
1A
102
}
330
1A
100
AcDbDictionary
  3
STANDARD
350
1C
  0
DICTIONARY
  5
2301
102
{ACAD_REACTORS
330
1A
102
}
330
1A
100
AcDbDictionary
  0
ACDBDICTIONARYWDFLT
  5
22FE
102
{ACAD_REACTORS
330
1A
102
}
330
1A
100
AcDbDictionary
281
     1
  3
Normal
350
22FF
100
AcDbDictionaryWithDefault
340
22FF
  0
DICTIONARY
  5
2B19
102
{ACAD_REACTORS
330
1A
102
}
330
1A
100
AcDbDictionary
  3
CEPSNTYPE
350
2B23
  3
FINGERPRINTGUID
350
2B24
  3
HYPERLINKBASE
350
2B1C
  3
INSUNITS
350
2B22
  3
LAYOUTDICT
350
2B1E
  3
LWETCUNION
350
2B21
  3
PLOTSETDICT
350
2B1F
  3
PLOTSTYLNAMDICT
350
2B20
  3
PSVPSCALE
350
2B26
  3
PUCSBASE
350
2B29
  3
PUCSORGBACK
350
2B2F
  3
PUCSORGBOTTOM
350
2B2B
  3
PUCSORGFRONT
350
2B2E
  3
PUCSORGLEFT
350
2B2C
  3
PUCSORGRIGHT
350
2B2D
  3
PUCSORGTOP
350
2B2A
  3
PUCSORTHOREF
350
2B27
  3
PUCSORTHOVIEW
350
2B28
  3
STYLESHEET
350
2B1D
  3
TSTACKALIGN
350
2B1A
  3
TSTACKSIZE
350
2B1B
  3
UCSBASE
350
2B32
  3
UCSORGBACK
350
2B38
  3
UCSORGBOTTOM
350
2B34
  3
UCSORGFRONT
350
2B37
  3
UCSORGLEFT
350
2B35
  3
UCSORGRIGHT
350
2B36
  3
UCSORGTOP
350
2B33
  3
UCSORTHOREF
350
2B30
  3
UCSORTHOVIEW
350
2B31
  3
VERSIONGUID
350
2B25
  0
DICTIONARY
  5
2307
102
{ACAD_REACTORS
330
1A
102
}
330
1A
100
AcDbDictionary
  3
DIMASSOC
350
2308
  0
XRECORD
  5
2B39
102
{ACAD_REACTORS
330
293F
102
}
330
293F
100
AcDbXrecord
340
2
  0
XRECORD
  5
2B3A
102
{ACAD_REACTORS
330
2941
102
}
330
2941
100
AcDbXrecord
340
7
  0
MLINESTYLE
  5
1C
102
{ACAD_REACTORS
330
19
102
}
330
19
100
AcDbMlineStyle
  2
STANDARD
 70
     0
  3

 62
     0
 51
90.0
 52
90.0
 71
     2
 49
0.5
 62
   256
  6
BYLAYER
 49
-0.5
 62
   256
  6
BYLAYER
  0
ACDBPLACEHOLDER
  5
22FF
102
{ACAD_REACTORS
330
22FE
102
}
330
22FE
100
AcDbPlaceHolder
280
     0
  0
XRECORD
  5
2B23
102
{ACAD_REACTORS
330
2B19
102
}
330
2B19
100
AcDbXrecord
 90
        0
  0
XRECORD
  5
2B24
102
{ACAD_REACTORS
330
2B19
102
}
330
2B19
100
AcDbXrecord
  1
{E5E3FA6D-616F-4869-BB12-98E1BD58B48B}
  0
XRECORD
  5
2B1C
102
{ACAD_REACTORS
330
2B19
102
}
330
2B19
100
AcDbXrecord
  1

  0
XRECORD
  5
2B22
102
{ACAD_REACTORS
330
2B19
102
}
330
2B19
100
AcDbXrecord
 90
        0
  0
XRECORD
  5
2B1E
102
{ACAD_REACTORS
330
2B19
102
}
330
2B19
100
AcDbXrecord
340
2300
  0
XRECORD
  5
2B21
102
{ACAD_REACTORS
330
2B19
102
}
330
2B19
100
AcDbXrecord
 90
    10781
  0
XRECORD
  5
2B1F
102
{ACAD_REACTORS
330
2B19
102
}
330
2B19
100
AcDbXrecord
340
2301
  0
XRECORD
  5
2B20
102
{ACAD_REACTORS
330
2B19
102
}
330
2B19
100
AcDbXrecord
340
22FE
  0
XRECORD
  5
2B26
102
{ACAD_REACTORS
330
2B19
102
}
330
2B19
100
AcDbXrecord
 40
0.0
  0
XRECORD
  5
2B29
102
{ACAD_REACTORS
330
2B19
102
}
330
2B19
100
AcDbXrecord
340
0
  0
XRECORD
  5
2B2F
102
{ACAD_REACTORS
330
2B19
102
}
330
2B19
100
AcDbXrecord
 10
0.0
 20
0.0
 30
0.0
  0
XRECORD
  5
2B2B
102
{ACAD_REACTORS
330
2B19
102
}
330
2B19
100
AcDbXrecord
 10
0.0
 20
0.0
 30
0.0
  0
XRECORD
  5
2B2E
102
{ACAD_REACTORS
330
2B19
102
}
330
2B19
100
AcDbXrecord
 10
0.0
 20
0.0
 30
0.0
  0
XRECORD
  5
2B2C
102
{ACAD_REACTORS
330
2B19
102
}
330
2B19
100
AcDbXrecord
 10
0.0
 20
0.0
 30
0.0
  0
XRECORD
  5
2B2D
102
{ACAD_REACTORS
330
2B19
102
}
330
2B19
100
AcDbXrecord
 10
0.0
 20
0.0
 30
0.0
  0
XRECORD
  5
2B2A
102
{ACAD_REACTORS
330
2B19
102
}
330
2B19
100
AcDbXrecord
 10
0.0
 20
0.0
 30
0.0
  0
XRECORD
  5
2B27
102
{ACAD_REACTORS
330
2B19
102
}
330
2B19
100
AcDbXrecord
340
0
  0
XRECORD
  5
2B28
102
{ACAD_REACTORS
330
2B19
102
}
330
2B19
100
AcDbXrecord
 70
     0
  0
XRECORD
  5
2B1D
102
{ACAD_REACTORS
330
2B19
102
}
330
2B19
100
AcDbXrecord
  1

  0
XRECORD
  5
2B1A
102
{ACAD_REACTORS
330
2B19
102
}
330
2B19
100
AcDbXrecord
 90
        1
  0
XRECORD
  5
2B1B
102
{ACAD_REACTORS
330
2B19
102
}
330
2B19
100
AcDbXrecord
 90
       70
  0
XRECORD
  5
2B32
102
{ACAD_REACTORS
330
2B19
102
}
330
2B19
100
AcDbXrecord
340
0
  0
XRECORD
  5
2B38
102
{ACAD_REACTORS
330
2B19
102
}
330
2B19
100
AcDbXrecord
 10
0.0
 20
0.0
 30
0.0
  0
XRECORD
  5
2B34
102
{ACAD_REACTORS
330
2B19
102
}
330
2B19
100
AcDbXrecord
 10
0.0
 20
0.0
 30
0.0
  0
XRECORD
  5
2B37
102
{ACAD_REACTORS
330
2B19
102
}
330
2B19
100
AcDbXrecord
 10
0.0
 20
0.0
 30
0.0
  0
XRECORD
  5
2B35
102
{ACAD_REACTORS
330
2B19
102
}
330
2B19
100
AcDbXrecord
 10
0.0
 20
0.0
 30
0.0
  0
XRECORD
  5
2B36
102
{ACAD_REACTORS
330
2B19
102
}
330
2B19
100
AcDbXrecord
 10
0.0
 20
0.0
 30
0.0
  0
XRECORD
  5
2B33
102
{ACAD_REACTORS
330
2B19
102
}
330
2B19
100
AcDbXrecord
 10
0.0
 20
0.0
 30
0.0
  0
XRECORD
  5
2B30
102
{ACAD_REACTORS
330
2B19
102
}
330
2B19
100
AcDbXrecord
340
0
  0
XRECORD
  5
2B31
102
{ACAD_REACTORS
330
2B19
102
}
330
2B19
100
AcDbXrecord
 70
     0
  0
XRECORD
  5
2B25
102
{ACAD_REACTORS
330
2B19
102
}
330
2B19
100
AcDbXrecord
  1
{025B42B4-1A36-475E-8018-D0CC6066BF57}
  0
DICTIONARYVAR
  5
2308
102
{ACAD_REACTORS
330
2307
102
}
330
2307
100
DictionaryVariables
280
     0
  1
1
  0
ENDSEC
  0
EOF
